注册/登陆
游客您好
第三方账号登陆
拉各斯黑帮4K Gangs.of.Lagos.2023.2160p电影资源下载
[复制链接]
2023-04-10 发布
  • 黄金会员
  • 0
  • 1450
青衫烟雨 发表于 2023-4-10 15:10:25 |阅读模式 打印 上一主题 下一主题

拉各斯黑帮4K
2023年(豆瓣:0)
  • 电影声道:5.1声道 
  • 电影语言:英文字幕   
  • 画质标准 SDR 
  • 资源版本  
  • 帧数/FPS:23.976 Fps
    发布排行: 第部4K原盘
    导  演:Jadesola Osiberu
    制片国家:美国 
    电影分类:犯罪 剧情 
    分 辨 率:4K(3840x2160)
简介这部动作犯罪惊悚片由尼日利亚演员 Tobi Bakare、Adesua Etomi-Wellington主演。这张以一群儿时的朋友为中心,他们每个人都在该国最大城市拉各斯的繁华街道和街区长大。
拉各斯黑帮4K Gangs.of.Lagos.2023.2160p.AMZN.WEB-DL.x265.8bit.SDR.DDP5.1-4K电影信息
  1. Video
  2. ID : 1
  3. Format : HEVC
  4. Format/Info : High Efficiency Video Coding
  5. Format profile : Main@L5@Main
  6. Codec ID : V_MPEGH/ISO/HEVC
  7. Duration : 2 h 4 min
  8. Bit rate : 14.7 Mb/s
  9. Width : 3 840 pixels
  10. Height : 2 160 pixels
  11. Display aspect ratio : 16:9
  12. Frame rate mode : Constant
  13. Frame rate : 24.000 FPS
  14. Color space : YUV
  15. Chroma subsampling : 4:2:0
  16. Bit depth : 8 bits
  17. Bits/(Pixel*Frame) : 0.074
  18. Stream size : 12.9 GiB (96%)
  19. Language : English (GB)
  20. Default : Yes
  21. Forced : No
  22. Color range : Limited
  23. Color primaries : BT.709
  24. Transfer characteristics : BT.709
  25. Matrix coefficients : BT.709

  26. Audio
  27. ID : 2
  28. Format : E-AC-3
  29. Format/Info : Enhanced AC-3
  30. Commercial name : Dolby Digital Plus
  31. Codec ID : A_EAC3
  32. Duration : 2 h 4 min
  33. Bit rate mode : Constant
  34. Bit rate : 640 kb/s
  35. Channel(s) : 6 channels
  36. Channel layout : L R C LFE Ls Rs
  37. Sampling rate : 48.0 kHz
  38. Frame rate : 31.250 FPS (1536 SPF)
  39. Compression mode : Lossy
  40. Stream size : 571 MiB (4%)
  41. Language : English
  42. Service kind : Complete Main
  43. Default : Yes
  44. Forced : No

  45. Text #1
  46. ID : 3
  47. Format : UTF-8
  48. Codec ID : S_TEXT/UTF8
  49. Codec ID/Info : UTF-8 Plain Text
  50. Duration : 2 h 0 min
  51. Bit rate : 32 b/s
  52. Frame rate : 0.144 FPS
  53. Count of elements : 1040
  54. Stream size : 29.0 KiB (0%)
  55. Title : British (Forced)
  56. Language : English (GB)
  57. Default : Yes
  58. Forced : Yes

  59. Text #2
  60. ID : 4
  61. Format : UTF-8
  62. Codec ID : S_TEXT/UTF8
  63. Codec ID/Info : UTF-8 Plain Text
  64. Duration : 2 h 4 min
  65. Bit rate : 49 b/s
  66. Frame rate : 0.220 FPS
  67. Count of elements : 1641
  68. Stream size : 45.4 KiB (0%)
  69. Title : British (SDH)
  70. Language : English (GB)
  71. Default : No
  72. Forced : No

  73. Text #3
  74. ID : 5
  75. Format : UTF-8
  76. Codec ID : S_TEXT/UTF8
  77. Codec ID/Info : UTF-8 Plain Text
  78. Duration : 2 h 0 min
  79. Bit rate : 33 b/s
  80. Frame rate : 0.157 FPS
  81. Count of elements : 1137
  82. Stream size : 29.2 KiB (0%)
  83. Language : English (US)
  84. Default : No
  85. Forced : No

  86. Text #36
  87. ID : 38
  88. Format : UTF-8
  89. Codec ID : S_TEXT/UTF8
  90. Codec ID/Info : UTF-8 Plain Text
  91. Duration : 2 h 4 min
  92. Bit rate : 40 b/s
  93. Frame rate : 0.194 FPS
  94. Count of elements : 1444
  95. Stream size : 37.3 KiB (0%)
  96. Title : Simplified
  97. Language : Chinese (Simplied)
  98. Default : No
  99. Forced : No

  100. Text #37
  101. ID : 39
  102. Format : UTF-8
  103. Codec ID : S_TEXT/UTF8
  104. Codec ID/Info : UTF-8 Plain Text
  105. Duration : 2 h 4 min
  106. Bit rate : 37 b/s
  107. Frame rate : 0.194 FPS
  108. Count of elements : 1444
  109. Stream size : 34.2 KiB (0%)
  110. Title : Traditional
  111. Language : Chinese (Traditional)
  112. Default : No
  113. Forced : No

  114. Menu
  115. 00:00:00.000 : en:Prime Video
  116. 00:00:11.000 : en:Studio Logo
  117. 00:00:15.000 : en:Disclaimer
  118. 00:00:20.000 : en:Scene 4
  119. 00:01:11.000 : en:Title Sequence
  120. 00:01:13.000 : en:Studio Logo
  121. 00:01:53.000 : en:Scene 7
  122. 00:03:50.000 : en:Scene 8
  123. 00:06:05.000 : en:Scene 9
  124. 00:09:13.000 : en:Scene 10
  125. 00:11:36.000 : en:Scene 11
  126. 00:14:02.000 : en:Scene 12
  127. 00:14:41.000 : en:Scene 13
  128. 00:16:22.000 : en:Scene 14
  129. 00:18:27.000 : en:Scene 15
  130. 00:18:58.000 : en:Scene 16
  131. 00:20:39.000 : en:Scene 17
  132. 00:21:58.000 : en:Scene 18
  133. 00:24:20.000 : en:Scene 19
  134. 00:25:26.000 : en:Scene 20
  135. 00:27:07.000 : en:Scene 21
  136. 00:29:09.000 : en:Scene 22
  137. 00:29:46.000 : en:Scene 23
  138. 00:31:02.000 : en:Scene 24
  139. 00:32:41.000 : en:Scene 25
  140. 00:35:20.000 : en:Scene 26
  141. 00:36:45.000 : en:Scene 27
  142. 00:39:24.000 : en:Scene 28
  143. 00:44:45.000 : en:Scene 29
  144. 00:49:02.000 : en:Scene 30
  145. 00:51:03.000 : en:Scene 31
  146. 00:53:16.000 : en:Scene 32
  147. 00:55:47.000 : en:Scene 33
  148. 00:57:26.000 : en:Scene 34
  149. 00:58:54.000 : en:Scene 35
  150. 00:59:45.000 : en:Scene 36
  151. 01:05:01.000 : en:Scene 37
  152. 01:07:58.000 : en:Scene 38
  153. 01:10:35.000 : en:Scene 39
  154. 01:12:46.000 : en:Scene 40
  155. 01:21:58.000 : en:Scene 41
  156. 01:24:36.000 : en:Scene 42
  157. 01:25:45.000 : en:Scene 43
  158. 01:28:52.000 : en:Scene 44
  159. 01:40:07.000 : en:Scene 45
  160. 01:42:12.000 : en:Scene 46
  161. 01:47:40.000 : en:Scene 47
  162. 01:53:54.000 : en:Scene 48
  163. 01:58:02.000 : en:Scene 49
  164. 02:00:18.000 : en:Scene 50
  165. 02:00:59.000 : en:Scene 51
  166. 02:01:49.000 : en:Scene 52
  167. 02:01:52.000 : en:End Credits
复制代码

拉各斯黑帮4K Gangs.of.Lagos.2023.2160p.AMZN.WEB-DL.x265.8bit.SDR.DDP5.1-4K电影下载

拉各斯黑帮4K Gangs.of.Lagos.2023.2160p.AMZN.WEB-DL.x265.8bit.SDR.DDP5.1【SDR 13.42 GB】
磁力链下载:

magnet:?xt=urn:btih:30153d3be98c1aedd5f891d5d4111adf3a80e4e9&dn

精彩评论12

dengyinyin 发表于 2023-4-11 12:18:14
感谢分享,谢谢了!
回复 支持 反对

使用道具 举报

66孔子 发表于 2023-4-12 19:58:58
辛苦楼主分享
回复 支持 反对

使用道具 举报

无休止旋律 发表于 2023-4-14 09:06:28
感谢分享
回复 支持 反对

使用道具 举报

Lik117 发表于 2023-4-16 18:34:32

谢谢,看看
回复 支持 反对

使用道具 举报

sjjtj 发表于 2023-4-23 20:29:16
辛苦楼主分享
回复 支持 反对

使用道具 举报

菠萝吹雪 发表于 2023-4-27 08:59:19
感谢楼主分享
回复 支持 反对

使用道具 举报

颜绿海 发表于 2023-5-22 13:48:31
感谢楼主分享
回复 支持 反对

使用道具 举报

thliushu 发表于 2023-6-6 11:09:54
感谢分享。
回复 支持 反对

使用道具 举报

shine288 发表于 2023-6-13 10:13:37
感谢楼主分享
回复 支持 反对

使用道具 举报

您需要登录后才可以回帖 登录 | 立即注册

本版积分规则

推荐影视全站推荐影视下载
  • 6.7

    7 天前/4K(3840x2160)

    美国骗局4k

    Disc Title: American.Hustle.2013.2160p.USA.UHD.Blu-ray.DV.HDR.HEVC.TrueHD.7.1.Atmos-4ksj Disc Label: AMERICAN_HUSTLE Disc Size: 90,587,158,705 bytes Protection: AACS2 Playlist: 00001.MPLS Size: 85,214,373,888 bytes Length: 02:18:03.274 Total Bitrate: 82.30 Mbps Video: MPEG-H HEVC Video / 66,371 kbps / 2160p / 23.976 fps / 16:9 / Main 10 @ Level 5.1 @ High / 4:2:0 / 10 bits / HDR10 / Limited Range / BT.2020 / PQ / BT.2020 non-constant / Mastering display color primaries: Display P3 / Mastering display luminance: min: 0.0001 cd/m2, max: 1000.0000 cd/m2 / Maximum Content Light Level: 997 cd / m2 / Maximum Frame-Average Light Level: 284 cd/m2 * Video: MPEG-H HEVC Video / 2,101 kbps / 1080p / 23.976 fps / 16:9 / Main 10 @ Level 5.1 @ High / 4:2:0 / 10 bits / Dolby Vision / Limited Range / BT.2020 / PQ / BT.2020 non-constant / Mastering display color primaries: Display P3 / Mastering display luminance: min: 0.0001 cd/m2, max: 1000.0000 cd/m2 Audio: English / Dolby TrueHD/Atmos Audio / 7.1 / 48 kHz / 3630 kbps / 24-bit (AC3 Embedded: 5.1 / 48 kHz / 640 kbps / DN -31dB) Audio: English / DTS-HD Master Audio / 5.1 / 48 kHz / 2160 kbps / 16-bit (DTS Core: 5.1 / 48 kHz / 1509 kbps / 16-bit) Audio: Spanish / DTS-HD Master Audio / 5.1 / 48 kHz / 2177 kbps / 16-bit (DTS Core: 5.1 / 48 kHz / 1509 kbps / 16-bit) Subtitle: English / 56.67 kbps Subtitle: English / 51.51 kbps Subtitle: Spanish / 41.85 kbps

    美国骗局4k(2013年)
    6.7
    ①网盘资源信息:
    剧情简介: 一次偶然中,埃文(克里斯蒂安·贝尔 Christian Bale 饰)遇见了性感美艳的脱衣舞女西德尼(艾米·亚当斯 Amy Adams 饰),趣味相投的两人一见钟情,很快就打得火热。没想到,埃文是一个职业骗子,在他的鼓动和“爱情的力量”影响之下,西德尼毅然入伙,两人联手合作,将“事业”经营的有声有色。   然而,常在河边走哪有不湿鞋,警方早已经盯上了行事作风颇为高调的埃文和西德尼,终于,在一次精密筹划的行动中将两人捉拿归案。经不住FBI探员里奇(布莱德利·库珀 Bradley Cooper 饰)的游说和诱惑,埃文和西德尼决定与其合作,“戴罪立功”。尽管拾起了“老本行”,但这次一次,埃文和西德尼显然站在了正义的那一方,因为他们的对手是那些贪赃枉法的腐败官员。

    4 天前/4K(3840x2160)

    美国内战4k

    File Name............: Civil.War.2024.2160p.iTunes.WEB-DL.DDP.5.1.Atmos.H.265-4ksj File Size............: 15.90 GiB Duration.............: 01:48:45.268 (HH:MM:SS.FFF) Video Bit Rate.......: 20,147 kbps Video Codec..........: HEVC,Main 10@L5 Frame Rate...........: 23.976 fps Resolution...........: 3836 x 2072 Audio#01.............: English (US) 768 kbps CBR 6channels E-AC-3 (ATMOS) Subtitle#01..........: Spanish (Latin America) Latin America

    美国内战4k(2024年)
    ①网盘资源信息:
    剧情简介: 影片讲述美国在不久的将来,爆发了影响全国的内战。在资深战地摄影师李·史密斯(克斯汀·邓斯特 Kirsten Dunst 饰)的带领下,记者们组成了一支强大的专业团队,穿越战线并设法生存下来。他们驱车前往华盛顿特区,希望在总统向名为 "WF"的军事力量投降之前采访总统。
    7.1

    7 天前/4K(3840x2160)

    特技狂人4k

    File Name............: The.Fall.Guy.2024.2160p.iTunes.WEB-DL.DDP.5.1.Atmos.HDR10+.H.265-4ksj File Size............: 22.30 GiB Duration.............: 02:06:53.451 (HH:MM:SS.FFF) Video Bit Rate.......: 24,420 kbps Video Codec..........: HEVC,Main 10@L5 SMPTE ST 2094 App 4, Version 1, HDR10+ Profile B compatible Frame Rate...........: 23.903 fps Resolution...........: 3836 x 1600 Audio#01.............: English (US) 768 kbps CBR 6channels E-AC-3 (ATMOS) Subtitle#01..........: Spanish (Latin America) Latin America Subtitle#02..........: French (CA) Canada

    特技狂人4k(2024年)
    7.1
    ①网盘资源信息:
    剧情简介:特技演员为爱犯险,翻身做主角。   科尔特·西弗斯(瑞恩·高斯林 Ryan Gosling 饰)是一名特技演员,就跟这个行业的每一个特技演员一样,他常常被炸飞、辗压、破窗而出以及从高处坠落地面,全都是为了娱乐观众。如今,他才刚因为意外受伤几乎被迫无法再从事特技表演,平凡的科尔特必须找到失踪的电影明星汤姆·赖德(亚伦·泰勒-约翰逊 Aaron Taylor-Johnson 饰)、破解一个阴谋,并且赢回他一生挚爱乔迪(艾米莉·布朗特 Emily Blunt 饰)的芳心,同时还要继续当一名特技演员。分身乏术、焦头烂额的他有可能一帆风顺吗?

    4 天前/4K(3840x2160)

    异星战境4k

    Video ID : 1 Format : HEVC Format/Info : High Efficiency Video Coding Format profile : Main 10@L5@Main Codec ID : V_MPEGH/ISO/HEVC Duration : 2 h 0 min Bit rate : 10.8 Mb/s Width : 3 840 pixels Height : 2 160 pixels Display aspect ratio : 16:9 Frame rate mode : Constant Frame rate : 24.000 FPS Color space : YUV Chroma subsampling : 4:2:0 Bit depth : 10 bits Bits/(Pixel*Frame) : 0.054 Stream size : 9.02 GiB (86%) Title : BEN.THE.MEN Language : English Default : Yes Forced : Yes Color range : Limited Color primaries : BT.709 Transfer characteristics : BT.709 Matrix coefficients : BT.709 Audio #1 ID : 2 Format : E-AC-3 JOC Format/Info : Enhanced AC-3 with Joint Object Coding Commercial name : Dolby Digital Plus with Dolby Atmos Codec ID : A_EAC3 Duration : 2 h 0 min Bit rate mode : Constant Bit rate : 768 kb/s Channel(s) : 6 channels Channel layout : L R C LFE Ls Rs Sampling rate : 48.0 kHz Frame rate : 31.250 FPS (1536 SPF) Compression mode : Lossy Stream size : 660 MiB (6%) Title : BTM DDP5.1 Atmos Language : English Service kind : Complete Main Default : Yes Forced : Yes Complexity index : 16 Number of dynamic objects : 15 Bed channel count : 1 channel Bed channel configuration : LFE Dialog Normalization : -26 dB compr : -0.28 dB dialnorm_Average : -26 dB dialnorm_Minimum : -26 dB dialnorm_Maximum : -26 dB Audio #2 ID : 3 Format : E-AC-3 Format/Info : Enhanced AC-3 Commercial name : Dolby Digital Plus Codec ID : A_EAC3 Duration : 2 h 0 min Bit rate mode : Constant Bit rate : 960 kb/s Channel(s) : 6 channels Channel layout : L R C LFE Ls Rs Sampling rate : 48.0 kHz Frame rate : 31.250 FPS (1536 SPF) Compression mode : Lossy Stream size : 825 MiB (8%) Title : BTM DDP5.1 Language : English Service kind : Complete Main Default : No Forced : No Dialog Normalization : -31 dB dialnorm_Average : -31 dB dialnorm_Minimum : -31 dB dialnorm_Maximum : -31 dB

    异星战境4k(2024年)
    ①网盘资源信息:
    剧情简介:在未来世界,军事情报分析师Atlas Shepherd(詹妮弗·洛佩兹 Jennifer Lopez 饰),对AI有着深切的不信任感。她加入了一个任务,试图捕捉一个叛逃的机器人,而这个机器人有着神秘的过去。不过,当计划失败时,她唯一拯救人类未来免受AI侵害的希望就是去相信它。
    6.9

    4 天前/4K(3840x2160)

    孤注一掷4k

    Video ID : 1 Format : AVC Format/Info : Advanced Video Codec Format profile : Main@L5.1 Format settings : CABAC / 4 Ref Frames Format settings, CABAC : Yes Format settings, Reference frames : 4 frames Codec ID : avc1 Codec ID/Info : Advanced Video Coding Duration : 2 h 9 min Bit rate mode : Variable Bit rate : 21.5 Mb/s Maximum bit rate : 120 Mb/s Width : 3 840 pixels Height : 2 160 pixels Display aspect ratio : 16:9 Frame rate mode : Variable Frame rate : 25.000 FPS Minimum frame rate : 17.158 FPS Maximum frame rate : 25.000 FPS Color space : YUV Chroma subsampling : 4:2:0 Bit depth : 8 bits Scan type : Progressive Bits/(Pixel*Frame) : 0.104 Stream size : 19.5 GiB (100%) Color range : Limited Color primaries : BT.709 Transfer characteristics : BT.709 Matrix coefficients : BT.709 Codec configuration box : avcC Audio ID : 2 Format : AAC LC Format/Info : Advanced Audio Codec Low Complexity Codec ID : mp4a-40-2 Duration : 2 h 9 min Bit rate mode : Constant Bit rate : 64.0 kb/s Channel(s) : 2 channels Channel layout : L R Sampling rate : 44.1 kHz Frame rate : 43.066 FPS (1024 SPF) Compression mode : Lossy Stream size : 59.5 MiB (0%) Default : Yes Alternate group : 1

    孤注一掷4k(2023年)
    6.9
    ①网盘资源信息:
    剧情简介:南亚某国,由于当地政府监管不力以及有意纵容,诈骗产业极其昌盛,炒股、挖币、网游、电商、博彩等,各种手段层出不穷,花样百出。某个科技产业园内,诈骗团伙头目陆经理(王传君 饰)张狂傲慢,用诡计和暴力统治着这个血泪王国。程序员潘生(张艺兴 饰)离开之前的公司,根据高薪招聘启示 走入了陆经理设下的圈套,成为一名利用网络诈骗的狗推。因为羡慕闺蜜的生活,模特梁安娜(金晨 饰)也飞到异国他乡寻找机会,结果护照被没收,成为陆经理手下利用美色诈骗的工具。进入人间炼狱,仿佛再也见不到活着出去的希望……   电影取材自上万起真实诈骗案例。


2015-2023 www.4ksj.com  4K世界 |网站地图
京ICP证160991号 京公网安备11010802015683号 Copyright ©2023 All Rights Reserved.
    *本站提供的所有电影资源均来自互联网,仅限交流使用,请在下载后的2小时内删除,所有版权皆属原公司所有,如果认为本站侵犯了您的版权,请告知,我们会立即删除。