注册/登陆
游客您好
第三方账号登陆
im Jefferies: 我就这样了4K 2018.2160p资源下载
[复制链接]
2023-04-11 发布
  • 黄金会员
  • 0
  • 1450
青衫烟雨 发表于 2023-4-11 18:34:32 |阅读模式 打印 上一主题 下一主题

im Jefferies: 我就这样了4K
2018年(豆瓣:7.6)
  • 电影声道:5.1声道 
  • 电影语言:中文简体   中文繁体   英文字幕   
  • 画质标准 SDR 
  • 资源版本  
  • 帧数/FPS:23.973 Fps
    发布排行: 第部4K原盘
    导  演:Scott Zabielski
    制片国家:美国 
    电影分类:喜剧 
    分 辨 率:4K(3840x2160)
简介在这部口不择言的单口喜剧特辑中,玩世不恭的吉姆·杰弗里斯讽刺了“贪婪”的名人、政治虚伪以及他那欠考虑的职业生涯
Jim Jefferies:这就是我(港)/Jim Jefferies: 我就这样了4K Jim.Jefferies.This.Is.Me.Now.2018.2160p.NF.WEB-DL.x265.10bit.SDR.DDP5.1-4K资源信息
  1. Video
  2. ID : 1
  3. Format : HEVC
  4. Format/Info : High Efficiency Video Coding
  5. Format profile : Main 10@L5@Main
  6. Codec ID : V_MPEGH/ISO/HEVC
  7. Duration : 1 h 10 min
  8. Bit rate : 12.1 Mb/s
  9. Width : 3 840 pixels
  10. Height : 2 160 pixels
  11. Display aspect ratio : 16:9
  12. Frame rate mode : Constant
  13. Frame rate : 23.976 (24000/1001) FPS
  14. Color space : YUV
  15. Chroma subsampling : 4:2:0
  16. Bit depth : 10 bits
  17. Bits/(Pixel*Frame) : 0.061
  18. Stream size : 5.96 GiB (95%)
  19. Language : English
  20. Default : Yes
  21. Forced : No
  22. Color range : Limited
  23. Color primaries : BT.709
  24. Transfer characteristics : BT.709
  25. Matrix coefficients : BT.709

  26. Audio
  27. ID : 2
  28. Format : E-AC-3
  29. Format/Info : Enhanced AC-3
  30. Commercial name : Dolby Digital Plus
  31. Codec ID : A_EAC3
  32. Duration : 1 h 10 min
  33. Bit rate mode : Constant
  34. Bit rate : 640 kb/s
  35. Channel(s) : 6 channels
  36. Channel layout : L R C LFE Ls Rs
  37. Sampling rate : 48.0 kHz
  38. Frame rate : 31.250 FPS (1536 SPF)
  39. Compression mode : Lossy
  40. Stream size : 323 MiB (5%)
  41. Language : English
  42. Service kind : Complete Main
  43. Default : Yes
  44. Forced : No

  45. Text #1
  46. ID : 3
  47. Format : UTF-8
  48. Codec ID : S_TEXT/UTF8
  49. Codec ID/Info : UTF-8 Plain Text
  50. Duration : 1 h 9 min
  51. Bit rate : 89 b/s
  52. Frame rate : 0.278 FPS
  53. Count of elements : 1155
  54. Stream size : 45.5 KiB (0%)
  55. Language : English
  56. Default : No
  57. Forced : No

  58. Text #2
  59. ID : 4
  60. Format : UTF-8
  61. Codec ID : S_TEXT/UTF8
  62. Codec ID/Info : UTF-8 Plain Text
  63. Duration : 1 h 9 min
  64. Bit rate : 97 b/s
  65. Frame rate : 0.327 FPS
  66. Count of elements : 1369
  67. Stream size : 49.7 KiB (0%)
  68. Title : SDH
  69. Language : English
  70. Default : No
  71. Forced : No

  72. Text #25
  73. ID : 27
  74. Format : UTF-8
  75. Codec ID : S_TEXT/UTF8
  76. Codec ID/Info : UTF-8 Plain Text
  77. Duration : 1 h 10 min
  78. Bit rate : 63 b/s
  79. Frame rate : 0.269 FPS
  80. Count of elements : 1131
  81. Stream size : 32.5 KiB (0%)
  82. Title : Simplified
  83. Language : Chinese (Simplied)
  84. Default : No
  85. Forced : No

  86. Text #26
  87. ID : 28
  88. Format : UTF-8
  89. Codec ID : S_TEXT/UTF8
  90. Codec ID/Info : UTF-8 Plain Text
  91. Duration : 1 h 10 min
  92. Bit rate : 80 b/s
  93. Frame rate : 0.269 FPS
  94. Count of elements : 1131
  95. Stream size : 41.2 KiB (0%)
  96. Title : Traditional
  97. Language : Chinese (Traditional)
  98. Default : No
  99. Forced : No

  100. Menu
  101. 01:10:18.000 : en:End Credits
复制代码

Jim Jefferies:这就是我(港)/Jim Jefferies: 我就这样了4K Jim.Jefferies.This.Is.Me.Now.2018.2160p.NF.WEB-DL.x265.10bit.SDR.DDP5.1-4K资源下载

Jim Jefferies: 我就这样了4K Jim.Jefferies.This.Is.Me.Now.2018.2160p.NF.WEB-DL.x265.10bit.SDR.DDP5.1【简繁中字】【SDR 6.28 GB】
磁力链下载:

magnet:?xt=urn:btih:4e410ac19b2f17b7947650d54975b91945189bc0&dn

精彩评论3

changan01 发表于 2023-4-12 08:55:33
谢谢分享!!!
回复 支持 反对

使用道具 举报

shine288 发表于 2023-6-13 10:11:25
感谢楼主分享
回复 支持 反对

使用道具 举报

您需要登录后才可以回帖 登录 | 立即注册

本版积分规则

推荐影视全站推荐影视下载
  • 6.7

    7 天前/4K(3840x2160)

    美国骗局4k

    Disc Title: American.Hustle.2013.2160p.USA.UHD.Blu-ray.DV.HDR.HEVC.TrueHD.7.1.Atmos-4ksj Disc Label: AMERICAN_HUSTLE Disc Size: 90,587,158,705 bytes Protection: AACS2 Playlist: 00001.MPLS Size: 85,214,373,888 bytes Length: 02:18:03.274 Total Bitrate: 82.30 Mbps Video: MPEG-H HEVC Video / 66,371 kbps / 2160p / 23.976 fps / 16:9 / Main 10 @ Level 5.1 @ High / 4:2:0 / 10 bits / HDR10 / Limited Range / BT.2020 / PQ / BT.2020 non-constant / Mastering display color primaries: Display P3 / Mastering display luminance: min: 0.0001 cd/m2, max: 1000.0000 cd/m2 / Maximum Content Light Level: 997 cd / m2 / Maximum Frame-Average Light Level: 284 cd/m2 * Video: MPEG-H HEVC Video / 2,101 kbps / 1080p / 23.976 fps / 16:9 / Main 10 @ Level 5.1 @ High / 4:2:0 / 10 bits / Dolby Vision / Limited Range / BT.2020 / PQ / BT.2020 non-constant / Mastering display color primaries: Display P3 / Mastering display luminance: min: 0.0001 cd/m2, max: 1000.0000 cd/m2 Audio: English / Dolby TrueHD/Atmos Audio / 7.1 / 48 kHz / 3630 kbps / 24-bit (AC3 Embedded: 5.1 / 48 kHz / 640 kbps / DN -31dB) Audio: English / DTS-HD Master Audio / 5.1 / 48 kHz / 2160 kbps / 16-bit (DTS Core: 5.1 / 48 kHz / 1509 kbps / 16-bit) Audio: Spanish / DTS-HD Master Audio / 5.1 / 48 kHz / 2177 kbps / 16-bit (DTS Core: 5.1 / 48 kHz / 1509 kbps / 16-bit) Subtitle: English / 56.67 kbps Subtitle: English / 51.51 kbps Subtitle: Spanish / 41.85 kbps

    美国骗局4k(2013年)
    6.7
    ①网盘资源信息:
    剧情简介: 一次偶然中,埃文(克里斯蒂安·贝尔 Christian Bale 饰)遇见了性感美艳的脱衣舞女西德尼(艾米·亚当斯 Amy Adams 饰),趣味相投的两人一见钟情,很快就打得火热。没想到,埃文是一个职业骗子,在他的鼓动和“爱情的力量”影响之下,西德尼毅然入伙,两人联手合作,将“事业”经营的有声有色。   然而,常在河边走哪有不湿鞋,警方早已经盯上了行事作风颇为高调的埃文和西德尼,终于,在一次精密筹划的行动中将两人捉拿归案。经不住FBI探员里奇(布莱德利·库珀 Bradley Cooper 饰)的游说和诱惑,埃文和西德尼决定与其合作,“戴罪立功”。尽管拾起了“老本行”,但这次一次,埃文和西德尼显然站在了正义的那一方,因为他们的对手是那些贪赃枉法的腐败官员。

    4 天前/4K(3840x2160)

    美国内战4k

    File Name............: Civil.War.2024.2160p.iTunes.WEB-DL.DDP.5.1.Atmos.H.265-4ksj File Size............: 15.90 GiB Duration.............: 01:48:45.268 (HH:MM:SS.FFF) Video Bit Rate.......: 20,147 kbps Video Codec..........: HEVC,Main 10@L5 Frame Rate...........: 23.976 fps Resolution...........: 3836 x 2072 Audio#01.............: English (US) 768 kbps CBR 6channels E-AC-3 (ATMOS) Subtitle#01..........: Spanish (Latin America) Latin America

    美国内战4k(2024年)
    ①网盘资源信息:
    剧情简介: 影片讲述美国在不久的将来,爆发了影响全国的内战。在资深战地摄影师李·史密斯(克斯汀·邓斯特 Kirsten Dunst 饰)的带领下,记者们组成了一支强大的专业团队,穿越战线并设法生存下来。他们驱车前往华盛顿特区,希望在总统向名为 "WF"的军事力量投降之前采访总统。
    7.1

    7 天前/4K(3840x2160)

    特技狂人4k

    File Name............: The.Fall.Guy.2024.2160p.iTunes.WEB-DL.DDP.5.1.Atmos.HDR10+.H.265-4ksj File Size............: 22.30 GiB Duration.............: 02:06:53.451 (HH:MM:SS.FFF) Video Bit Rate.......: 24,420 kbps Video Codec..........: HEVC,Main 10@L5 SMPTE ST 2094 App 4, Version 1, HDR10+ Profile B compatible Frame Rate...........: 23.903 fps Resolution...........: 3836 x 1600 Audio#01.............: English (US) 768 kbps CBR 6channels E-AC-3 (ATMOS) Subtitle#01..........: Spanish (Latin America) Latin America Subtitle#02..........: French (CA) Canada

    特技狂人4k(2024年)
    7.1
    ①网盘资源信息:
    剧情简介:特技演员为爱犯险,翻身做主角。   科尔特·西弗斯(瑞恩·高斯林 Ryan Gosling 饰)是一名特技演员,就跟这个行业的每一个特技演员一样,他常常被炸飞、辗压、破窗而出以及从高处坠落地面,全都是为了娱乐观众。如今,他才刚因为意外受伤几乎被迫无法再从事特技表演,平凡的科尔特必须找到失踪的电影明星汤姆·赖德(亚伦·泰勒-约翰逊 Aaron Taylor-Johnson 饰)、破解一个阴谋,并且赢回他一生挚爱乔迪(艾米莉·布朗特 Emily Blunt 饰)的芳心,同时还要继续当一名特技演员。分身乏术、焦头烂额的他有可能一帆风顺吗?

    4 天前/4K(3840x2160)

    异星战境4k

    Video ID : 1 Format : HEVC Format/Info : High Efficiency Video Coding Format profile : Main 10@L5@Main Codec ID : V_MPEGH/ISO/HEVC Duration : 2 h 0 min Bit rate : 10.8 Mb/s Width : 3 840 pixels Height : 2 160 pixels Display aspect ratio : 16:9 Frame rate mode : Constant Frame rate : 24.000 FPS Color space : YUV Chroma subsampling : 4:2:0 Bit depth : 10 bits Bits/(Pixel*Frame) : 0.054 Stream size : 9.02 GiB (86%) Title : BEN.THE.MEN Language : English Default : Yes Forced : Yes Color range : Limited Color primaries : BT.709 Transfer characteristics : BT.709 Matrix coefficients : BT.709 Audio #1 ID : 2 Format : E-AC-3 JOC Format/Info : Enhanced AC-3 with Joint Object Coding Commercial name : Dolby Digital Plus with Dolby Atmos Codec ID : A_EAC3 Duration : 2 h 0 min Bit rate mode : Constant Bit rate : 768 kb/s Channel(s) : 6 channels Channel layout : L R C LFE Ls Rs Sampling rate : 48.0 kHz Frame rate : 31.250 FPS (1536 SPF) Compression mode : Lossy Stream size : 660 MiB (6%) Title : BTM DDP5.1 Atmos Language : English Service kind : Complete Main Default : Yes Forced : Yes Complexity index : 16 Number of dynamic objects : 15 Bed channel count : 1 channel Bed channel configuration : LFE Dialog Normalization : -26 dB compr : -0.28 dB dialnorm_Average : -26 dB dialnorm_Minimum : -26 dB dialnorm_Maximum : -26 dB Audio #2 ID : 3 Format : E-AC-3 Format/Info : Enhanced AC-3 Commercial name : Dolby Digital Plus Codec ID : A_EAC3 Duration : 2 h 0 min Bit rate mode : Constant Bit rate : 960 kb/s Channel(s) : 6 channels Channel layout : L R C LFE Ls Rs Sampling rate : 48.0 kHz Frame rate : 31.250 FPS (1536 SPF) Compression mode : Lossy Stream size : 825 MiB (8%) Title : BTM DDP5.1 Language : English Service kind : Complete Main Default : No Forced : No Dialog Normalization : -31 dB dialnorm_Average : -31 dB dialnorm_Minimum : -31 dB dialnorm_Maximum : -31 dB

    异星战境4k(2024年)
    ①网盘资源信息:
    剧情简介:在未来世界,军事情报分析师Atlas Shepherd(詹妮弗·洛佩兹 Jennifer Lopez 饰),对AI有着深切的不信任感。她加入了一个任务,试图捕捉一个叛逃的机器人,而这个机器人有着神秘的过去。不过,当计划失败时,她唯一拯救人类未来免受AI侵害的希望就是去相信它。
    6.9

    4 天前/4K(3840x2160)

    孤注一掷4k

    Video ID : 1 Format : AVC Format/Info : Advanced Video Codec Format profile : Main@L5.1 Format settings : CABAC / 4 Ref Frames Format settings, CABAC : Yes Format settings, Reference frames : 4 frames Codec ID : avc1 Codec ID/Info : Advanced Video Coding Duration : 2 h 9 min Bit rate mode : Variable Bit rate : 21.5 Mb/s Maximum bit rate : 120 Mb/s Width : 3 840 pixels Height : 2 160 pixels Display aspect ratio : 16:9 Frame rate mode : Variable Frame rate : 25.000 FPS Minimum frame rate : 17.158 FPS Maximum frame rate : 25.000 FPS Color space : YUV Chroma subsampling : 4:2:0 Bit depth : 8 bits Scan type : Progressive Bits/(Pixel*Frame) : 0.104 Stream size : 19.5 GiB (100%) Color range : Limited Color primaries : BT.709 Transfer characteristics : BT.709 Matrix coefficients : BT.709 Codec configuration box : avcC Audio ID : 2 Format : AAC LC Format/Info : Advanced Audio Codec Low Complexity Codec ID : mp4a-40-2 Duration : 2 h 9 min Bit rate mode : Constant Bit rate : 64.0 kb/s Channel(s) : 2 channels Channel layout : L R Sampling rate : 44.1 kHz Frame rate : 43.066 FPS (1024 SPF) Compression mode : Lossy Stream size : 59.5 MiB (0%) Default : Yes Alternate group : 1

    孤注一掷4k(2023年)
    6.9
    ①网盘资源信息:
    剧情简介:南亚某国,由于当地政府监管不力以及有意纵容,诈骗产业极其昌盛,炒股、挖币、网游、电商、博彩等,各种手段层出不穷,花样百出。某个科技产业园内,诈骗团伙头目陆经理(王传君 饰)张狂傲慢,用诡计和暴力统治着这个血泪王国。程序员潘生(张艺兴 饰)离开之前的公司,根据高薪招聘启示 走入了陆经理设下的圈套,成为一名利用网络诈骗的狗推。因为羡慕闺蜜的生活,模特梁安娜(金晨 饰)也飞到异国他乡寻找机会,结果护照被没收,成为陆经理手下利用美色诈骗的工具。进入人间炼狱,仿佛再也见不到活着出去的希望……   电影取材自上万起真实诈骗案例。


2015-2023 www.4ksj.com  4K世界 |网站地图
京ICP证160991号 京公网安备11010802015683号 Copyright ©2023 All Rights Reserved.
    *本站提供的所有电影资源均来自互联网,仅限交流使用,请在下载后的2小时内删除,所有版权皆属原公司所有,如果认为本站侵犯了您的版权,请告知,我们会立即删除。