注册/登陆
游客您好
第三方账号登陆
耶稣革命4K Jesus.Revolution.2023.2160p电影下载
[复制链接]
2023-04-11 发布
  • 黄金会员
  • 0
  • 1427
青衫烟雨 发表于 2023-4-11 21:03:30 |阅读模式 打印 上一主题 下一主题

耶稣革命4k
2023年(豆瓣:0)
  • 电影声道:5.1声道 
  • 电影语言:英文字幕   
  • 画质标准 HDR 
  • 资源版本  
  • 帧数/FPS:23.976 Fps
    发布排行: 第部4K原盘
    导  演:乔恩·欧文 / 布伦特·麦科克尔
    制片国家:美国 
    电影分类:剧情 历史 
    分 辨 率:4K(3840x2160)
简介电影讲述的是一个试图寻找真理的年轻人,却始终未能找到,直到他遇见了一位嬉皮士街头传教士。他们一起来到了南加州教堂,迎来了意想不到的复兴,并在其中对耶稣的爱有了新的发现,这使得他们属灵觉醒了。
耶稣革命4K Jesus.Revolution.2023.2160p.WEB-DL.x265.10bit.HDR10Plus.DDP5.1.Atmos-4K电影资源信息
  1. Video
  2. ID : 1
  3. Format : HEVC
  4. Format/Info : High Efficiency Video Coding
  5. Format profile : Main 10@L5@High
  6. HDR format : Dolby Vision, Version 1.0, dvhe.08.06, BL+RPU, HDR10 compatible / SMPTE ST 2094 App 4, Version 1, HDR10+ Profile B compatible
  7. Codec ID : V_MPEGH/ISO/HEVC
  8. Duration : 1 h 59 min
  9. Bit rate : 24.6 Mb/s
  10. Width : 3 824 pixels
  11. Height : 1 588 pixels
  12. Display aspect ratio : 2.40:1
  13. Frame rate mode : Constant
  14. Frame rate : 23.976 FPS
  15. Color space : YUV
  16. Chroma subsampling : 4:2:0 (Type 2)
  17. Bit depth : 10 bits
  18. Bits/(Pixel*Frame) : 0.169
  19. Stream size : 20.6 GiB (97%)
  20. Language : English
  21. Default : Yes
  22. Forced : No
  23. Color range : Limited
  24. Color primaries : BT.2020
  25. Transfer characteristics : PQ
  26. Matrix coefficients : BT.2020 non-constant
  27. Mastering display color primaries : BT.2020
  28. Mastering display luminance : min: 0.0050 cd/m2, max: 1000 cd/m2
  29. Maximum Content Light Level : 3689 cd/m2
  30. Maximum Frame-Average Light Level : 1201 cd/m2

  31. Audio
  32. ID : 2
  33. Format : E-AC-3 JOC
  34. Format/Info : Enhanced AC-3 with Joint Object Coding
  35. Commercial name : Dolby Digital Plus with Dolby Atmos
  36. Codec ID : A_EAC3
  37. Duration : 1 h 59 min
  38. Bit rate mode : Constant
  39. Bit rate : 768 kb/s
  40. Channel(s) : 6 channels
  41. Channel layout : L R C LFE Ls Rs
  42. Sampling rate : 48.0 kHz
  43. Frame rate : 31.250 FPS (1536 SPF)
  44. Compression mode : Lossy
  45. Stream size : 659 MiB (3%)
  46. Language : English
  47. Service kind : Complete Main
  48. Default : Yes
  49. Forced : No
  50. Complexity index : 16
  51. Number of dynamic objects : 15
  52. Bed channel count : 1 channel
  53. Bed channel configuration : LFE

  54. Text #1
  55. ID : 3
  56. Format : UTF-8
  57. Codec ID : S_TEXT/UTF8
  58. Codec ID/Info : UTF-8 Plain Text
  59. Duration : 1 h 53 min
  60. Bit rate : 2 b/s
  61. Frame rate : 0.009 FPS
  62. Count of elements : 60
  63. Stream size : 2.28 KiB (0%)
  64. Title : Forced
  65. Language : French (FR)
  66. Default : No
  67. Forced : Yes

  68. Text #2
  69. ID : 4
  70. Format : UTF-8
  71. Codec ID : S_TEXT/UTF8
  72. Codec ID/Info : UTF-8 Plain Text
  73. Duration : 1 h 57 min
  74. Bit rate : 77 b/s
  75. Frame rate : 0.319 FPS
  76. Count of elements : 2242
  77. Stream size : 66.1 KiB (0%)
  78. Title : CC
  79. Language : English
  80. Default : Yes
  81. Forced : No

  82. Menu
  83. 00:00:00.000 : en:Chapter 01
  84. 00:06:00.360 : en:Chapter 02
  85. 00:17:36.598 : en:Chapter 03
  86. 00:29:38.987 : en:Chapter 04
  87. 00:37:49.144 : en:Chapter 05
  88. 00:49:21.628 : en:Chapter 06
  89. 00:57:59.270 : en:Chapter 07
  90. 01:09:37.093 : en:Chapter 08
  91. 01:19:36.526 : en:Chapter 09
  92. 01:31:18.978 : en:Chapter 10
  93. 01:42:09.170 : en:Chapter 11
  94. 01:54:01.716 : en:Chapter 12
复制代码

耶稣革命4K Jesus.Revolution.2023.2160p.WEB-DL.x265.10bit.HDR10Plus.DDP5.1.Atmos-4K电影资源下载

耶稣革命4K Jesus.Revolution.2023.2160p.WEB-DL.x265.10bit.HDR10Plus.DDP5.1.Atmos【HDR 21.26 GB】
磁力链下载:

magnet:?xt=urn:btih:97e2172256291be756300baa138b016e58a31e37&dn

耶稣革命4K Jesus.Revolution.2023.2160p.WEB-DL.x265.10bit.SDR.DDP5.1.Atmos【SDR 17.90 GB】
磁力链下载:

magnet:?xt=urn:btih:c6f5aa55ddda70fb942613f164174579290ab59f&dn

耶稣革命4K Jesus.Revolution.2023.2160p.WEB-DL.DDP5.1.Atmos.DV.MP4.x265【杜比视界 21.31 GB】
磁力链下载:

magnet:?xt=urn:btih:a28158f1f4ba61f87d51ef5c9b2d0f055791d85c&dn

耶稣革命4K Jesus.Revolution.2023.2160p.WEB-DL.DDP5.1.Atmos.DV.MKV.x265【杜比视界 21.31 GB】
磁力链下载:
magnet:?xt=urn:btih:c37075dbc24872443558cb6b073f6b6faeae30ab&dn

精彩评论11

changan01 发表于 2023-4-12 08:34:00
好,谢谢分享1
回复 支持 反对

使用道具 举报

zolo20 发表于 2023-4-12 21:46:12
好,谢谢分享1
回复 支持 反对

使用道具 举报

老来乐 发表于 2023-4-14 20:28:26
谢谢分享,谢谢对4K世界的支持。
回复 支持 反对

使用道具 举报

w1s2q3z4 发表于 2023-4-15 17:16:07
现在的分享为什么没有了bt种子下载链接而只有磁力
回复 支持 反对

使用道具 举报

zhhwj 发表于 2023-4-18 08:38:06
感谢楼主分享!
回复 支持 反对

使用道具 举报

winter0626 发表于 2023-4-27 15:03:37

不错,谢谢分享!!!
回复 支持 反对

使用道具 举报

hyjyhj 发表于 2023-5-6 21:26:44
棒!谢谢分享!
回复 支持 反对

使用道具 举报

颜绿海 发表于 2023-5-22 13:48:51
感谢楼主分享
回复 支持 反对

使用道具 举报

shine288 发表于 2023-6-13 09:45:31
感谢楼主分享
回复 支持 反对

使用道具 举报

您需要登录后才可以回帖 登录 | 立即注册

本版积分规则

推荐影视全站推荐影视下载
  • 6.7

    6 天前/4K(3840x2160)

    美国骗局4k

    Disc Title: American.Hustle.2013.2160p.USA.UHD.Blu-ray.DV.HDR.HEVC.TrueHD.7.1.Atmos-4ksj Disc Label: AMERICAN_HUSTLE Disc Size: 90,587,158,705 bytes Protection: AACS2 Playlist: 00001.MPLS Size: 85,214,373,888 bytes Length: 02:18:03.274 Total Bitrate: 82.30 Mbps Video: MPEG-H HEVC Video / 66,371 kbps / 2160p / 23.976 fps / 16:9 / Main 10 @ Level 5.1 @ High / 4:2:0 / 10 bits / HDR10 / Limited Range / BT.2020 / PQ / BT.2020 non-constant / Mastering display color primaries: Display P3 / Mastering display luminance: min: 0.0001 cd/m2, max: 1000.0000 cd/m2 / Maximum Content Light Level: 997 cd / m2 / Maximum Frame-Average Light Level: 284 cd/m2 * Video: MPEG-H HEVC Video / 2,101 kbps / 1080p / 23.976 fps / 16:9 / Main 10 @ Level 5.1 @ High / 4:2:0 / 10 bits / Dolby Vision / Limited Range / BT.2020 / PQ / BT.2020 non-constant / Mastering display color primaries: Display P3 / Mastering display luminance: min: 0.0001 cd/m2, max: 1000.0000 cd/m2 Audio: English / Dolby TrueHD/Atmos Audio / 7.1 / 48 kHz / 3630 kbps / 24-bit (AC3 Embedded: 5.1 / 48 kHz / 640 kbps / DN -31dB) Audio: English / DTS-HD Master Audio / 5.1 / 48 kHz / 2160 kbps / 16-bit (DTS Core: 5.1 / 48 kHz / 1509 kbps / 16-bit) Audio: Spanish / DTS-HD Master Audio / 5.1 / 48 kHz / 2177 kbps / 16-bit (DTS Core: 5.1 / 48 kHz / 1509 kbps / 16-bit) Subtitle: English / 56.67 kbps Subtitle: English / 51.51 kbps Subtitle: Spanish / 41.85 kbps

    美国骗局4k(2013年)
    6.7
    ①网盘资源信息:
    剧情简介: 一次偶然中,埃文(克里斯蒂安·贝尔 Christian Bale 饰)遇见了性感美艳的脱衣舞女西德尼(艾米·亚当斯 Amy Adams 饰),趣味相投的两人一见钟情,很快就打得火热。没想到,埃文是一个职业骗子,在他的鼓动和“爱情的力量”影响之下,西德尼毅然入伙,两人联手合作,将“事业”经营的有声有色。   然而,常在河边走哪有不湿鞋,警方早已经盯上了行事作风颇为高调的埃文和西德尼,终于,在一次精密筹划的行动中将两人捉拿归案。经不住FBI探员里奇(布莱德利·库珀 Bradley Cooper 饰)的游说和诱惑,埃文和西德尼决定与其合作,“戴罪立功”。尽管拾起了“老本行”,但这次一次,埃文和西德尼显然站在了正义的那一方,因为他们的对手是那些贪赃枉法的腐败官员。

    3 天前/4K(3840x2160)

    美国内战4k

    File Name............: Civil.War.2024.2160p.iTunes.WEB-DL.DDP.5.1.Atmos.H.265-4ksj File Size............: 15.90 GiB Duration.............: 01:48:45.268 (HH:MM:SS.FFF) Video Bit Rate.......: 20,147 kbps Video Codec..........: HEVC,Main 10@L5 Frame Rate...........: 23.976 fps Resolution...........: 3836 x 2072 Audio#01.............: English (US) 768 kbps CBR 6channels E-AC-3 (ATMOS) Subtitle#01..........: Spanish (Latin America) Latin America

    美国内战4k(2024年)
    ①网盘资源信息:
    剧情简介: 影片讲述美国在不久的将来,爆发了影响全国的内战。在资深战地摄影师李·史密斯(克斯汀·邓斯特 Kirsten Dunst 饰)的带领下,记者们组成了一支强大的专业团队,穿越战线并设法生存下来。他们驱车前往华盛顿特区,希望在总统向名为 "WF"的军事力量投降之前采访总统。
    7.1

    6 天前/4K(3840x2160)

    特技狂人4k

    File Name............: The.Fall.Guy.2024.2160p.iTunes.WEB-DL.DDP.5.1.Atmos.HDR10+.H.265-4ksj File Size............: 22.30 GiB Duration.............: 02:06:53.451 (HH:MM:SS.FFF) Video Bit Rate.......: 24,420 kbps Video Codec..........: HEVC,Main 10@L5 SMPTE ST 2094 App 4, Version 1, HDR10+ Profile B compatible Frame Rate...........: 23.903 fps Resolution...........: 3836 x 1600 Audio#01.............: English (US) 768 kbps CBR 6channels E-AC-3 (ATMOS) Subtitle#01..........: Spanish (Latin America) Latin America Subtitle#02..........: French (CA) Canada

    特技狂人4k(2024年)
    7.1
    ①网盘资源信息:
    剧情简介:特技演员为爱犯险,翻身做主角。   科尔特·西弗斯(瑞恩·高斯林 Ryan Gosling 饰)是一名特技演员,就跟这个行业的每一个特技演员一样,他常常被炸飞、辗压、破窗而出以及从高处坠落地面,全都是为了娱乐观众。如今,他才刚因为意外受伤几乎被迫无法再从事特技表演,平凡的科尔特必须找到失踪的电影明星汤姆·赖德(亚伦·泰勒-约翰逊 Aaron Taylor-Johnson 饰)、破解一个阴谋,并且赢回他一生挚爱乔迪(艾米莉·布朗特 Emily Blunt 饰)的芳心,同时还要继续当一名特技演员。分身乏术、焦头烂额的他有可能一帆风顺吗?
    5.5

    7 天前/4K(3840x2160)

    我不好惹2:贝琪之怒4k

    Disc Title: BECKY 2 - SHE\\\\\\\\\\\\\\\\\\\\\\\\\\\\\\\\\\\\\\\\\\\\\\\\\\\\\\\\\\\\\\\'S BACK Disc Label: The.Wrath.of.Becky.2023.2160p.UHD.Blu-ray.HEVC.DTS-HD.MA.7.1-4ksj Disc Size: 54,543,534,782 bytes Protection: AACS2 Playlist: 00000.MPLS Size: 52,846,829,184 bytes Length: 1:24:10.000 Total Bitrate: 83.72 Mbps Video: MPEG-H HEVC Video / 70339 kbps / 2160p / 24 fps / 16:9 / Main 10 @ Level 5.1 @ High / 10 bits / HDR10 / BT.2020 Audio: German / DTS-HD Master Audio / 7.1 / 48 kHz / 4743 kbps / 24-bit (DTS Core: 5.1 / 48 kHz / 1509 kbps / 24-bit) Audio: English / DTS-HD Master Audio / 7.1 / 48 kHz / 4585 kbps / 24-bit (DTS Core: 5.1 / 48 kHz / 1509 kbps / 24-bit) Subtitle: German / 31.173 kbps Subtitle: German / 0.717 kbps

    ①网盘资源信息:
    剧情简介:在逃离暴力袭击两年后,女孩贝琪必须再度保护自己免受恐怖分子的袭击。贝琪试图在名叫埃琳娜的年长女性的照顾下重建自己的生活。但是,当一个被称为“贵族”的团体闯入他们的家,袭击他们,并带走她心爱的狗迭戈时,贝琪必须找回她以前的方式来保护自己和她的亲人。

    3 天前/4K(3840x2160)

    异星战境4k

    Video ID : 1 Format : HEVC Format/Info : High Efficiency Video Coding Format profile : Main 10@L5@Main Codec ID : V_MPEGH/ISO/HEVC Duration : 2 h 0 min Bit rate : 10.8 Mb/s Width : 3 840 pixels Height : 2 160 pixels Display aspect ratio : 16:9 Frame rate mode : Constant Frame rate : 24.000 FPS Color space : YUV Chroma subsampling : 4:2:0 Bit depth : 10 bits Bits/(Pixel*Frame) : 0.054 Stream size : 9.02 GiB (86%) Title : BEN.THE.MEN Language : English Default : Yes Forced : Yes Color range : Limited Color primaries : BT.709 Transfer characteristics : BT.709 Matrix coefficients : BT.709 Audio #1 ID : 2 Format : E-AC-3 JOC Format/Info : Enhanced AC-3 with Joint Object Coding Commercial name : Dolby Digital Plus with Dolby Atmos Codec ID : A_EAC3 Duration : 2 h 0 min Bit rate mode : Constant Bit rate : 768 kb/s Channel(s) : 6 channels Channel layout : L R C LFE Ls Rs Sampling rate : 48.0 kHz Frame rate : 31.250 FPS (1536 SPF) Compression mode : Lossy Stream size : 660 MiB (6%) Title : BTM DDP5.1 Atmos Language : English Service kind : Complete Main Default : Yes Forced : Yes Complexity index : 16 Number of dynamic objects : 15 Bed channel count : 1 channel Bed channel configuration : LFE Dialog Normalization : -26 dB compr : -0.28 dB dialnorm_Average : -26 dB dialnorm_Minimum : -26 dB dialnorm_Maximum : -26 dB Audio #2 ID : 3 Format : E-AC-3 Format/Info : Enhanced AC-3 Commercial name : Dolby Digital Plus Codec ID : A_EAC3 Duration : 2 h 0 min Bit rate mode : Constant Bit rate : 960 kb/s Channel(s) : 6 channels Channel layout : L R C LFE Ls Rs Sampling rate : 48.0 kHz Frame rate : 31.250 FPS (1536 SPF) Compression mode : Lossy Stream size : 825 MiB (8%) Title : BTM DDP5.1 Language : English Service kind : Complete Main Default : No Forced : No Dialog Normalization : -31 dB dialnorm_Average : -31 dB dialnorm_Minimum : -31 dB dialnorm_Maximum : -31 dB

    异星战境4k(2024年)
    ①网盘资源信息:
    剧情简介:在未来世界,军事情报分析师Atlas Shepherd(詹妮弗·洛佩兹 Jennifer Lopez 饰),对AI有着深切的不信任感。她加入了一个任务,试图捕捉一个叛逃的机器人,而这个机器人有着神秘的过去。不过,当计划失败时,她唯一拯救人类未来免受AI侵害的希望就是去相信它。


2015-2023 www.4ksj.com  4K世界 |网站地图
京ICP证160991号 京公网安备11010802015683号 Copyright ©2023 All Rights Reserved.
    *本站提供的所有电影资源均来自互联网,仅限交流使用,请在下载后的2小时内删除,所有版权皆属原公司所有,如果认为本站侵犯了您的版权,请告知,我们会立即删除。