注册/登陆
游客您好
第三方账号登陆
一千零一4K A.Thousand.and.One.2023.2160p电影下载
[复制链接]
2023-04-18 发布
  • 黄金会员
  • 0
  • 1427
青衫烟雨 发表于 2023-4-18 15:30:51 |阅读模式 打印 上一主题 下一主题

一千零一4k
2023年(豆瓣:0)
  • 电影声道:5.1声道 
  • 电影语言:英文字幕   
  • 画质标准 HDR 
  • 资源版本  
  • 帧数/FPS:23.976 Fps
    发布排行: 第部4K原盘
    导  演:A·V·洛克威尔
    制片国家:美国 
    电影分类:犯罪 剧情 
    分 辨 率:4K(3840x2160)
简介刚出狱的女子Inez从纽约市福利系统夺回6岁的儿子,从此两人共同生活,面对生活的风波、真实与谎言。
一千零一4K A.Thousand.and.One.2023.2160p.MA.WEB-DL.x265.10bit.HDR.DDP5.1.Atmos-4k电影信息
  1. Video
  2. ID : 1
  3. Format : HEVC
  4. Format/Info : High Efficiency Video Coding
  5. Format profile : Main 10@L5@High
  6. HDR format : Dolby Vision, Version 1.0, dvhe.08.06, BL+RPU, HDR10 compatible / SMPTE ST 2086, HDR10 compatible
  7. Codec ID : V_MPEGH/ISO/HEVC
  8. Duration : 1 h 57 min
  9. Bit rate : 24.3 Mb/s
  10. Width : 3 840 pixels
  11. Height : 2 160 pixels
  12. Display aspect ratio : 16:9
  13. Frame rate mode : Constant
  14. Frame rate : 23.976 (24000/1001) FPS
  15. Color space : YUV
  16. Chroma subsampling : 4:2:0 (Type 2)
  17. Bit depth : 10 bits
  18. Bits/(Pixel*Frame) : 0.122
  19. Stream size : 19.9 GiB (97%)
  20. Language : English
  21. Default : Yes
  22. Forced : No
  23. Color range : Limited
  24. Color primaries : BT.2020
  25. Transfer characteristics : PQ
  26. Matrix coefficients : BT.2020 non-constant
  27. Mastering display color primaries : BT.2020
  28. Mastering display luminance : min: 0.0050 cd/m2, max: 1000 cd/m2
  29. Maximum Content Light Level : 587 cd/m2
  30. Maximum Frame-Average Light Level : 171 cd/m2

  31. Audio
  32. ID : 2
  33. Format : E-AC-3 JOC
  34. Format/Info : Enhanced AC-3 with Joint Object Coding
  35. Commercial name : Dolby Digital Plus with Dolby Atmos
  36. Codec ID : A_EAC3
  37. Duration : 1 h 57 min
  38. Bit rate mode : Constant
  39. Bit rate : 768 kb/s
  40. Channel(s) : 6 channels
  41. Channel layout : L R C LFE Ls Rs
  42. Sampling rate : 48.0 kHz
  43. Frame rate : 31.250 FPS (1536 SPF)
  44. Compression mode : Lossy
  45. Delay relative to video : 1 s 88 ms
  46. Stream size : 644 MiB (3%)
  47. Language : English
  48. Service kind : Complete Main
  49. Default : Yes
  50. Forced : No
  51. Complexity index : 16
  52. Number of dynamic objects : 15
  53. Bed channel count : 1 channel
  54. Bed channel configuration : LFE

  55. Text #1
  56. ID : 3
  57. Format : UTF-8
  58. Codec ID : S_TEXT/UTF8
  59. Codec ID/Info : UTF-8 Plain Text
  60. Duration : 1 h 49 min
  61. Bit rate : 59 b/s
  62. Frame rate : 0.231 FPS
  63. Count of elements : 1517
  64. Stream size : 47.3 KiB (0%)
  65. Language : English
  66. Default : No
  67. Forced : No

  68. Text #2
  69. ID : 4
  70. Format : UTF-8
  71. Codec ID : S_TEXT/UTF8
  72. Codec ID/Info : UTF-8 Plain Text
  73. Duration : 1 h 50 min
  74. Bit rate : 66 b/s
  75. Frame rate : 0.264 FPS
  76. Count of elements : 1751
  77. Stream size : 53.8 KiB (0%)
  78. Title : SDH
  79. Language : English
  80. Default : No
  81. Forced : No

  82. Text #3
  83. ID : 5
  84. Format : UTF-8
  85. Codec ID : S_TEXT/UTF8
  86. Codec ID/Info : UTF-8 Plain Text
  87. Duration : 1 h 55 min
  88. Bit rate : 43 b/s
  89. Frame rate : 0.191 FPS
  90. Count of elements : 1325
  91. Stream size : 37.0 KiB (0%)
  92. Title : Latin American
  93. Language : Spanish (Latin America)
  94. Default : No
  95. Forced : No

  96. Text #4
  97. ID : 6
  98. Format : UTF-8
  99. Codec ID : S_TEXT/UTF8
  100. Codec ID/Info : UTF-8 Plain Text
  101. Duration : 1 h 55 min
  102. Bit rate : 52 b/s
  103. Frame rate : 0.211 FPS
  104. Count of elements : 1468
  105. Stream size : 44.3 KiB (0%)
  106. Title : Canadian
  107. Language : French (CA)
  108. Default : No
  109. Forced : No

  110. Menu
  111. 00:00:01.088 : en:Chapter 01
  112. 00:08:10.869 : en:Chapter 02
  113. 00:15:04.157 : en:Chapter 03
  114. 00:21:13.902 : en:Chapter 04
  115. 00:28:58.909 : en:Chapter 05
  116. 00:35:56.535 : en:Chapter 06
  117. 00:41:46.635 : en:Chapter 07
  118. 00:48:10.769 : en:Chapter 08
  119. 00:59:44.004 : en:Chapter 09
  120. 01:05:48.660 : en:Chapter 10
  121. 01:10:19.639 : en:Chapter 11
  122. 01:17:04.795 : en:Chapter 12
  123. 01:24:11.763 : en:Chapter 13
  124. 01:33:21.980 : en:Chapter 14
  125. 01:39:53.830 : en:Chapter 15
  126. 01:47:42.841 : en:Chapter 16
复制代码

一千零一4K A.Thousand.and.One.2023.2160p.MA.WEB-DL.x265.10bit.HDR.DDP5.1.Atmos-4k电影下载

一千零一4K A.Thousand.and.One.2023.2160p.MA.WEB-DL.x265.10bit.HDR.DDP5.1.Atmos【HDR 20.56 GB】
磁力链下载:

magnet:?xt=urn:btih:ebdc738037a15813e0c2514753d7c508d934e596&dn

一千零一4K A.Thousand.and.One.2023.2160p.MA.WEB-DL.x265.10bit.SDR.DDP5.1.Atmos【SDR 20.58 GB】
磁力链下载:

magnet:?xt=urn:btih:641170d2dc667738ad450e7c06c6cbaf4032151d&dn

一千零一4k电影ASS中英字幕下载 感谢K友@duoduodad分享的字幕
https://www.4ksj.com/thread-75965-1-1.html

精彩评论8

jsntbus 发表于 2023-4-19 15:24:07
看成了一千零一夜
回复 支持 反对

使用道具 举报

老麦克 发表于 2023-4-19 19:19:46
回复 支持 反对

使用道具 举报

winter0626 发表于 2023-4-21 08:30:29
谢谢分享值得收藏的资源
回复 支持 反对

使用道具 举报

hyjyhj 发表于 2023-4-22 22:53:21
哈哈哈 这个标题吸引了我
回复 支持 反对

使用道具 举报

qxd_rabbit 发表于 2023-4-27 11:43:25
画面效果非常好
回复 支持 反对

使用道具 举报

huangdama 发表于 2023-5-18 23:05:52
感谢楼主分享
回复 支持 反对

使用道具 举报

shine288 发表于 2023-6-13 09:42:59
谢谢楼主发好片
回复 支持 反对

使用道具 举报

您需要登录后才可以回帖 登录 | 立即注册

本版积分规则

推荐影视全站推荐影视下载
  • 6.7

    6 天前/4K(3840x2160)

    美国骗局4k

    Disc Title: American.Hustle.2013.2160p.USA.UHD.Blu-ray.DV.HDR.HEVC.TrueHD.7.1.Atmos-4ksj Disc Label: AMERICAN_HUSTLE Disc Size: 90,587,158,705 bytes Protection: AACS2 Playlist: 00001.MPLS Size: 85,214,373,888 bytes Length: 02:18:03.274 Total Bitrate: 82.30 Mbps Video: MPEG-H HEVC Video / 66,371 kbps / 2160p / 23.976 fps / 16:9 / Main 10 @ Level 5.1 @ High / 4:2:0 / 10 bits / HDR10 / Limited Range / BT.2020 / PQ / BT.2020 non-constant / Mastering display color primaries: Display P3 / Mastering display luminance: min: 0.0001 cd/m2, max: 1000.0000 cd/m2 / Maximum Content Light Level: 997 cd / m2 / Maximum Frame-Average Light Level: 284 cd/m2 * Video: MPEG-H HEVC Video / 2,101 kbps / 1080p / 23.976 fps / 16:9 / Main 10 @ Level 5.1 @ High / 4:2:0 / 10 bits / Dolby Vision / Limited Range / BT.2020 / PQ / BT.2020 non-constant / Mastering display color primaries: Display P3 / Mastering display luminance: min: 0.0001 cd/m2, max: 1000.0000 cd/m2 Audio: English / Dolby TrueHD/Atmos Audio / 7.1 / 48 kHz / 3630 kbps / 24-bit (AC3 Embedded: 5.1 / 48 kHz / 640 kbps / DN -31dB) Audio: English / DTS-HD Master Audio / 5.1 / 48 kHz / 2160 kbps / 16-bit (DTS Core: 5.1 / 48 kHz / 1509 kbps / 16-bit) Audio: Spanish / DTS-HD Master Audio / 5.1 / 48 kHz / 2177 kbps / 16-bit (DTS Core: 5.1 / 48 kHz / 1509 kbps / 16-bit) Subtitle: English / 56.67 kbps Subtitle: English / 51.51 kbps Subtitle: Spanish / 41.85 kbps

    美国骗局4k(2013年)
    6.7
    ①网盘资源信息:
    剧情简介: 一次偶然中,埃文(克里斯蒂安·贝尔 Christian Bale 饰)遇见了性感美艳的脱衣舞女西德尼(艾米·亚当斯 Amy Adams 饰),趣味相投的两人一见钟情,很快就打得火热。没想到,埃文是一个职业骗子,在他的鼓动和“爱情的力量”影响之下,西德尼毅然入伙,两人联手合作,将“事业”经营的有声有色。   然而,常在河边走哪有不湿鞋,警方早已经盯上了行事作风颇为高调的埃文和西德尼,终于,在一次精密筹划的行动中将两人捉拿归案。经不住FBI探员里奇(布莱德利·库珀 Bradley Cooper 饰)的游说和诱惑,埃文和西德尼决定与其合作,“戴罪立功”。尽管拾起了“老本行”,但这次一次,埃文和西德尼显然站在了正义的那一方,因为他们的对手是那些贪赃枉法的腐败官员。

    3 天前/4K(3840x2160)

    美国内战4k

    File Name............: Civil.War.2024.2160p.iTunes.WEB-DL.DDP.5.1.Atmos.H.265-4ksj File Size............: 15.90 GiB Duration.............: 01:48:45.268 (HH:MM:SS.FFF) Video Bit Rate.......: 20,147 kbps Video Codec..........: HEVC,Main 10@L5 Frame Rate...........: 23.976 fps Resolution...........: 3836 x 2072 Audio#01.............: English (US) 768 kbps CBR 6channels E-AC-3 (ATMOS) Subtitle#01..........: Spanish (Latin America) Latin America

    美国内战4k(2024年)
    ①网盘资源信息:
    剧情简介: 影片讲述美国在不久的将来,爆发了影响全国的内战。在资深战地摄影师李·史密斯(克斯汀·邓斯特 Kirsten Dunst 饰)的带领下,记者们组成了一支强大的专业团队,穿越战线并设法生存下来。他们驱车前往华盛顿特区,希望在总统向名为 "WF"的军事力量投降之前采访总统。
    7.1

    6 天前/4K(3840x2160)

    特技狂人4k

    File Name............: The.Fall.Guy.2024.2160p.iTunes.WEB-DL.DDP.5.1.Atmos.HDR10+.H.265-4ksj File Size............: 22.30 GiB Duration.............: 02:06:53.451 (HH:MM:SS.FFF) Video Bit Rate.......: 24,420 kbps Video Codec..........: HEVC,Main 10@L5 SMPTE ST 2094 App 4, Version 1, HDR10+ Profile B compatible Frame Rate...........: 23.903 fps Resolution...........: 3836 x 1600 Audio#01.............: English (US) 768 kbps CBR 6channels E-AC-3 (ATMOS) Subtitle#01..........: Spanish (Latin America) Latin America Subtitle#02..........: French (CA) Canada

    特技狂人4k(2024年)
    7.1
    ①网盘资源信息:
    剧情简介:特技演员为爱犯险,翻身做主角。   科尔特·西弗斯(瑞恩·高斯林 Ryan Gosling 饰)是一名特技演员,就跟这个行业的每一个特技演员一样,他常常被炸飞、辗压、破窗而出以及从高处坠落地面,全都是为了娱乐观众。如今,他才刚因为意外受伤几乎被迫无法再从事特技表演,平凡的科尔特必须找到失踪的电影明星汤姆·赖德(亚伦·泰勒-约翰逊 Aaron Taylor-Johnson 饰)、破解一个阴谋,并且赢回他一生挚爱乔迪(艾米莉·布朗特 Emily Blunt 饰)的芳心,同时还要继续当一名特技演员。分身乏术、焦头烂额的他有可能一帆风顺吗?
    5.5

    7 天前/4K(3840x2160)

    我不好惹2:贝琪之怒4k

    Disc Title: BECKY 2 - SHE\\\\\\\\\\\\\\\\\\\\\\\\\\\\\\\\\\\\\\\\\\\\\\\\\\\\\\\\\\\\\\\'S BACK Disc Label: The.Wrath.of.Becky.2023.2160p.UHD.Blu-ray.HEVC.DTS-HD.MA.7.1-4ksj Disc Size: 54,543,534,782 bytes Protection: AACS2 Playlist: 00000.MPLS Size: 52,846,829,184 bytes Length: 1:24:10.000 Total Bitrate: 83.72 Mbps Video: MPEG-H HEVC Video / 70339 kbps / 2160p / 24 fps / 16:9 / Main 10 @ Level 5.1 @ High / 10 bits / HDR10 / BT.2020 Audio: German / DTS-HD Master Audio / 7.1 / 48 kHz / 4743 kbps / 24-bit (DTS Core: 5.1 / 48 kHz / 1509 kbps / 24-bit) Audio: English / DTS-HD Master Audio / 7.1 / 48 kHz / 4585 kbps / 24-bit (DTS Core: 5.1 / 48 kHz / 1509 kbps / 24-bit) Subtitle: German / 31.173 kbps Subtitle: German / 0.717 kbps

    ①网盘资源信息:
    剧情简介:在逃离暴力袭击两年后,女孩贝琪必须再度保护自己免受恐怖分子的袭击。贝琪试图在名叫埃琳娜的年长女性的照顾下重建自己的生活。但是,当一个被称为“贵族”的团体闯入他们的家,袭击他们,并带走她心爱的狗迭戈时,贝琪必须找回她以前的方式来保护自己和她的亲人。

    3 天前/4K(3840x2160)

    异星战境4k

    Video ID : 1 Format : HEVC Format/Info : High Efficiency Video Coding Format profile : Main 10@L5@Main Codec ID : V_MPEGH/ISO/HEVC Duration : 2 h 0 min Bit rate : 10.8 Mb/s Width : 3 840 pixels Height : 2 160 pixels Display aspect ratio : 16:9 Frame rate mode : Constant Frame rate : 24.000 FPS Color space : YUV Chroma subsampling : 4:2:0 Bit depth : 10 bits Bits/(Pixel*Frame) : 0.054 Stream size : 9.02 GiB (86%) Title : BEN.THE.MEN Language : English Default : Yes Forced : Yes Color range : Limited Color primaries : BT.709 Transfer characteristics : BT.709 Matrix coefficients : BT.709 Audio #1 ID : 2 Format : E-AC-3 JOC Format/Info : Enhanced AC-3 with Joint Object Coding Commercial name : Dolby Digital Plus with Dolby Atmos Codec ID : A_EAC3 Duration : 2 h 0 min Bit rate mode : Constant Bit rate : 768 kb/s Channel(s) : 6 channels Channel layout : L R C LFE Ls Rs Sampling rate : 48.0 kHz Frame rate : 31.250 FPS (1536 SPF) Compression mode : Lossy Stream size : 660 MiB (6%) Title : BTM DDP5.1 Atmos Language : English Service kind : Complete Main Default : Yes Forced : Yes Complexity index : 16 Number of dynamic objects : 15 Bed channel count : 1 channel Bed channel configuration : LFE Dialog Normalization : -26 dB compr : -0.28 dB dialnorm_Average : -26 dB dialnorm_Minimum : -26 dB dialnorm_Maximum : -26 dB Audio #2 ID : 3 Format : E-AC-3 Format/Info : Enhanced AC-3 Commercial name : Dolby Digital Plus Codec ID : A_EAC3 Duration : 2 h 0 min Bit rate mode : Constant Bit rate : 960 kb/s Channel(s) : 6 channels Channel layout : L R C LFE Ls Rs Sampling rate : 48.0 kHz Frame rate : 31.250 FPS (1536 SPF) Compression mode : Lossy Stream size : 825 MiB (8%) Title : BTM DDP5.1 Language : English Service kind : Complete Main Default : No Forced : No Dialog Normalization : -31 dB dialnorm_Average : -31 dB dialnorm_Minimum : -31 dB dialnorm_Maximum : -31 dB

    异星战境4k(2024年)
    ①网盘资源信息:
    剧情简介:在未来世界,军事情报分析师Atlas Shepherd(詹妮弗·洛佩兹 Jennifer Lopez 饰),对AI有着深切的不信任感。她加入了一个任务,试图捕捉一个叛逃的机器人,而这个机器人有着神秘的过去。不过,当计划失败时,她唯一拯救人类未来免受AI侵害的希望就是去相信它。


2015-2023 www.4ksj.com  4K世界 |网站地图
京ICP证160991号 京公网安备11010802015683号 Copyright ©2023 All Rights Reserved.
    *本站提供的所有电影资源均来自互联网,仅限交流使用,请在下载后的2小时内删除,所有版权皆属原公司所有,如果认为本站侵犯了您的版权,请告知,我们会立即删除。