注册/登陆
游客您好
第三方账号登陆
回到太空4K Return.to.Space.2022.2160p电影纪录片下载
[复制链接]
2023-04-21 发布
  • 黄金会员
  • 0
  • 1450
青衫烟雨 发表于 2023-4-21 16:25:21 |阅读模式 打印 上一主题 下一主题

回到太空4K
2022年(豆瓣:8.6)
  • 电影声道:5.1声道 
  • 电影语言:中文简体   中文繁体   英文字幕   
  • 画质标准 HDR 
  • 资源版本  
  • 帧数/FPS:23.976 Fps
    发布排行: 第部4K原盘
    导  演:伊丽莎白·柴·瓦沙瑞莉 / 金国威
    制片国家:美国 
    电影分类:纪录片 
    分 辨 率:4K(3840x2160)
简介斯卡获奖导演伊丽莎白·柴·瓦沙瑞莉和金国威(《徒手攀岩》《泰国洞穴救援》)首次将镜头对准天空,讲述了 SpaceX 鼓舞人心的崛起历程,以及埃隆·马斯克 20 年来为重振美国太空旅行野心所做的努力。这是自 2011 年航天飞机退役以来首次在美国本土执行载人任务,这是一次难得的机会,带领观众深入了解这一历史性时刻的背后功臣工程师和宇航员。《回到太空》记录了 NASA 资深人员鲍勃·本肯、道格·赫尔利和其家人在发射前的准备工作,将带领观众前往国际空间站进行激动人心的旅程,并探访马斯克和 SpaceX 团队的任务控制中心,见证其如何以“海面溅落”的方式将太空人送回地球。
重返太空(台) / 回归太空(港)回到太空4K Return.to.Space.2022.2160p.NF.WEB-DL.x265.10bit.HDR.DDP5.1.Atmos-4K纪录片资源信息
  1. Video
  2. ID : 1
  3. Format : HEVC
  4. Format/Info : High Efficiency Video Coding
  5. Format profile : Main 10@L5@Main
  6. HDR format : Dolby Vision, Version 1.0, dvhe.08.06, BL+RPU, HDR10 compatible / SMPTE ST 2086, HDR10 compatible
  7. Codec ID : V_MPEGH/ISO/HEVC
  8. Duration : 2 h 6 min
  9. Bit rate : 10.0 Mb/s
  10. Width : 3 840 pixels
  11. Height : 2 160 pixels
  12. Display aspect ratio : 16:9
  13. Frame rate mode : Constant
  14. Frame rate : 23.976 (24000/1001) FPS
  15. Color space : YUV
  16. Chroma subsampling : 4:2:0 (Type 2)
  17. Bit depth : 10 bits
  18. Bits/(Pixel*Frame) : 0.051
  19. Stream size : 8.88 GiB (93%)
  20. Language : English
  21. Default : Yes
  22. Forced : No
  23. Color range : Limited
  24. Color primaries : BT.2020
  25. Transfer characteristics : PQ
  26. Matrix coefficients : BT.2020 non-constant
  27. Mastering display color primaries : Display P3
  28. Mastering display luminance : min: 0.0001 cd/m2, max: 1000 cd/m2
  29. Maximum Content Light Level : 1771 cd/m2
  30. Maximum Frame-Average Light Level : 358 cd/m2

  31. Audio
  32. ID : 2
  33. Format : E-AC-3 JOC
  34. Format/Info : Enhanced AC-3 with Joint Object Coding
  35. Commercial name : Dolby Digital Plus with Dolby Atmos
  36. Codec ID : A_EAC3
  37. Duration : 2 h 8 min
  38. Bit rate mode : Constant
  39. Bit rate : 768 kb/s
  40. Channel(s) : 6 channels
  41. Channel layout : L R C LFE Ls Rs
  42. Sampling rate : 48.0 kHz
  43. Frame rate : 31.250 FPS (1536 SPF)
  44. Compression mode : Lossy
  45. Stream size : 704 MiB (7%)
  46. Language : English
  47. Service kind : Complete Main
  48. Default : Yes
  49. Forced : No
  50. Complexity index : 16
  51. Number of dynamic objects : 15
  52. Bed channel count : 1 channel
  53. Bed channel configuration : LFE

  54. Text #1
  55. ID : 3
  56. Format : UTF-8
  57. Codec ID : S_TEXT/UTF8
  58. Codec ID/Info : UTF-8 Plain Text
  59. Duration : 1 h 47 min
  60. Bit rate : 3 b/s
  61. Frame rate : 0.014 FPS
  62. Count of elements : 92
  63. Stream size : 2.92 KiB (0%)
  64. Title : Forced
  65. Language : English
  66. Default : Yes
  67. Forced : Yes

  68. Text #2
  69. ID : 4
  70. Format : UTF-8
  71. Codec ID : S_TEXT/UTF8
  72. Codec ID/Info : UTF-8 Plain Text
  73. Duration : 2 h 2 min
  74. Bit rate : 91 b/s
  75. Frame rate : 0.258 FPS
  76. Count of elements : 1890
  77. Stream size : 81.7 KiB (0%)
  78. Language : English
  79. Default : No
  80. Forced : No

  81. Text #3
  82. ID : 5
  83. Format : UTF-8
  84. Codec ID : S_TEXT/UTF8
  85. Codec ID/Info : UTF-8 Plain Text
  86. Duration : 2 h 3 min
  87. Bit rate : 100 b/s
  88. Frame rate : 0.285 FPS
  89. Count of elements : 2112
  90. Stream size : 91.0 KiB (0%)
  91. Title : SDH
  92. Language : English
  93. Default : No
  94. Forced : No


  95. Text #34
  96. ID : 36
  97. Format : UTF-8
  98. Codec ID : S_TEXT/UTF8
  99. Codec ID/Info : UTF-8 Plain Text
  100. Duration : 2 h 6 min
  101. Bit rate : 82 b/s
  102. Frame rate : 0.255 FPS
  103. Count of elements : 1931
  104. Stream size : 76.3 KiB (0%)
  105. Title : Simplified
  106. Language : Chinese (Simplied)
  107. Default : No
  108. Forced : No

  109. Text #35
  110. ID : 37
  111. Format : UTF-8
  112. Codec ID : S_TEXT/UTF8
  113. Codec ID/Info : UTF-8 Plain Text
  114. Duration : 2 h 6 min
  115. Bit rate : 70 b/s
  116. Frame rate : 0.255 FPS
  117. Count of elements : 1928
  118. Stream size : 65.0 KiB (0%)
  119. Title : Traditional
  120. Language : Chinese (Traditional)
  121. Default : No
  122. Forced : No

  123. Menu
  124. 02:03:51.000 : en:End Credits
复制代码

重返太空(台) / 回归太空(港)回到太空4K Return.to.Space.2022.2160p.NF.WEB-DL.x265.10bit.HDR.DDP5.1.Atmos-4K电影纪录片下载

回到太空4K Return.to.Space.2022.2160p.NF.WEB-DL.x265.10bit.HDR.DDP5.1.Atmos【简繁中字】【HDR 9.57 GB】


回到太空4K Return.to.Space.2022.2160p.NF.WEB-DL.x265.10bit.SDR.DDP5.1.Atmos【简繁中字】【SDR 9.57 GB】
磁力链下载:

magnet:?xt=urn:btih:c15b54ccdb5d5a2b24fd3e1c77dedb3d416bfc43&dn

精彩评论58

157578248 发表于 2023-4-21 20:45:45
太给力了
回复 支持 0 反对 1

使用道具 举报

love5201314 发表于 2023-4-22 06:19:54
不错啊
回复 支持 反对

使用道具 举报

lyface 发表于 2023-4-22 07:54:30
紧跟时事
回复 支持 反对

使用道具 举报

gd-man 发表于 2023-4-22 08:29:36
给这些为人类向未来迈进做出杰出贡献的人点赞!
回复 支持 1 反对 0

使用道具 举报

stonezb 发表于 2023-4-22 10:02:05
SpaceX 刚发射失败,谢谢分享
回复 支持 0 反对 1

使用道具 举报

新手下海 发表于 2023-4-22 11:35:32
stonezb 发表于 2023-4-22 10:02
SpaceX 刚发射失败,谢谢分享

如果你真的了解,是成功了
回复 支持 4 反对 0

使用道具 举报

hyjyhj 发表于 2023-4-22 22:52:37
感谢楼主分享!
回复 支持 反对

使用道具 举报

stonezb 发表于 2023-4-23 08:22:13
新手下海 发表于 2023-4-22 11:35
如果你真的了解,是成功了

如果你真的客观,就不会把失败硬说成成功
回复 支持 1 反对 0

使用道具 举报

changan01 发表于 2023-4-23 08:55:53
谢谢分享!!!
回复 支持 反对

使用道具 举报

pf_pf_pf_pf 发表于 2023-4-23 09:24:02
感谢发布
回复 支持 反对

使用道具 举报

hyanp02 发表于 2023-4-23 09:31:51
stonezb 发表于 2023-4-23 08:22
如果你真的客观,就不会把失败硬说成成功

我给国内媒体搞糊涂了,不知道是成功还是失败,但是看视频背景声是鼓掌与欢呼的。
回复 支持 2 反对 0

使用道具 举报

captor 发表于 2023-4-23 11:34:14
一部好纪录片
回复 支持 反对

使用道具 举报

Transcene 发表于 2023-4-23 19:31:23
hyanp02 发表于 2023-4-23 09:31
我给国内媒体搞糊涂了,不知道是成功还是失败,但是看视频背景声是鼓掌与欢呼的。

事实是这次星舰发射有成功也有失败,而且在SpaceX那里属于是个低预期项目

成功的几项:成功发射升空、突破MAX-Q、一二级火箭分离失败后利用剩余燃料对以廉价材料制造的舰体的进行结构强度测试并通过

失败的关键项:发动机点火问题导致后续一二级火箭不具备分离条件

爆炸原因:舰体在完成结构强度测试后,在将要飞出NASA划定的安全区前被工作人员主动引爆

现在国内这些主流媒体绝大部分早已被那些人腐蚀透了,千万别被忽悠。在这个喉舌走狗遍地的环境里,我们普通人所能做的是尊重真相,远离粉虫且跪族,保持清醒
回复 支持 7 反对 0

使用道具 举报

新手下海 发表于 2023-4-23 23:13:58
stonezb 发表于 2023-4-23 08:22
如果你真的客观,就不会把失败硬说成成功

当然客观了,你可以先了解一下去年到现在的一系列测试内容,再了解一下这一次的发射目的。
回复 支持 反对

使用道具 举报

stonezb 发表于 2023-4-24 10:00:57
hyanp02 发表于 2023-4-23 09:31
我给国内媒体搞糊涂了,不知道是成功还是失败,但是看视频背景声是鼓掌与欢呼的。

国内媒体也是引用的美国媒体,包括官方他们的结论都是失败。以下是百度内的部分搜索结果。
参考消息网4月23日报道 据美国《纽约时报》网站4月21日报道,美国太空探索技术公司(SpaceX)的“星舰”火箭日前在得克萨斯州首飞失败并爆炸后,周边城市被棕色灰尘覆盖,引发当地居民对健康问题的担忧。
据太空探索技术公司(spacex)最新消息,号称“史上最强火箭”的“星舰”(starship)20日发射失败。
回复 支持 反对

使用道具 举报

您需要登录后才可以回帖 登录 | 立即注册

本版积分规则

推荐影视全站推荐影视下载
  • 6.7

    7 天前/4K(3840x2160)

    美国骗局4k

    Disc Title: American.Hustle.2013.2160p.USA.UHD.Blu-ray.DV.HDR.HEVC.TrueHD.7.1.Atmos-4ksj Disc Label: AMERICAN_HUSTLE Disc Size: 90,587,158,705 bytes Protection: AACS2 Playlist: 00001.MPLS Size: 85,214,373,888 bytes Length: 02:18:03.274 Total Bitrate: 82.30 Mbps Video: MPEG-H HEVC Video / 66,371 kbps / 2160p / 23.976 fps / 16:9 / Main 10 @ Level 5.1 @ High / 4:2:0 / 10 bits / HDR10 / Limited Range / BT.2020 / PQ / BT.2020 non-constant / Mastering display color primaries: Display P3 / Mastering display luminance: min: 0.0001 cd/m2, max: 1000.0000 cd/m2 / Maximum Content Light Level: 997 cd / m2 / Maximum Frame-Average Light Level: 284 cd/m2 * Video: MPEG-H HEVC Video / 2,101 kbps / 1080p / 23.976 fps / 16:9 / Main 10 @ Level 5.1 @ High / 4:2:0 / 10 bits / Dolby Vision / Limited Range / BT.2020 / PQ / BT.2020 non-constant / Mastering display color primaries: Display P3 / Mastering display luminance: min: 0.0001 cd/m2, max: 1000.0000 cd/m2 Audio: English / Dolby TrueHD/Atmos Audio / 7.1 / 48 kHz / 3630 kbps / 24-bit (AC3 Embedded: 5.1 / 48 kHz / 640 kbps / DN -31dB) Audio: English / DTS-HD Master Audio / 5.1 / 48 kHz / 2160 kbps / 16-bit (DTS Core: 5.1 / 48 kHz / 1509 kbps / 16-bit) Audio: Spanish / DTS-HD Master Audio / 5.1 / 48 kHz / 2177 kbps / 16-bit (DTS Core: 5.1 / 48 kHz / 1509 kbps / 16-bit) Subtitle: English / 56.67 kbps Subtitle: English / 51.51 kbps Subtitle: Spanish / 41.85 kbps

    美国骗局4k(2013年)
    6.7
    ①网盘资源信息:
    剧情简介: 一次偶然中,埃文(克里斯蒂安·贝尔 Christian Bale 饰)遇见了性感美艳的脱衣舞女西德尼(艾米·亚当斯 Amy Adams 饰),趣味相投的两人一见钟情,很快就打得火热。没想到,埃文是一个职业骗子,在他的鼓动和“爱情的力量”影响之下,西德尼毅然入伙,两人联手合作,将“事业”经营的有声有色。   然而,常在河边走哪有不湿鞋,警方早已经盯上了行事作风颇为高调的埃文和西德尼,终于,在一次精密筹划的行动中将两人捉拿归案。经不住FBI探员里奇(布莱德利·库珀 Bradley Cooper 饰)的游说和诱惑,埃文和西德尼决定与其合作,“戴罪立功”。尽管拾起了“老本行”,但这次一次,埃文和西德尼显然站在了正义的那一方,因为他们的对手是那些贪赃枉法的腐败官员。

    4 天前/4K(3840x2160)

    美国内战4k

    File Name............: Civil.War.2024.2160p.iTunes.WEB-DL.DDP.5.1.Atmos.H.265-4ksj File Size............: 15.90 GiB Duration.............: 01:48:45.268 (HH:MM:SS.FFF) Video Bit Rate.......: 20,147 kbps Video Codec..........: HEVC,Main 10@L5 Frame Rate...........: 23.976 fps Resolution...........: 3836 x 2072 Audio#01.............: English (US) 768 kbps CBR 6channels E-AC-3 (ATMOS) Subtitle#01..........: Spanish (Latin America) Latin America

    美国内战4k(2024年)
    ①网盘资源信息:
    剧情简介: 影片讲述美国在不久的将来,爆发了影响全国的内战。在资深战地摄影师李·史密斯(克斯汀·邓斯特 Kirsten Dunst 饰)的带领下,记者们组成了一支强大的专业团队,穿越战线并设法生存下来。他们驱车前往华盛顿特区,希望在总统向名为 "WF"的军事力量投降之前采访总统。
    7.1

    7 天前/4K(3840x2160)

    特技狂人4k

    File Name............: The.Fall.Guy.2024.2160p.iTunes.WEB-DL.DDP.5.1.Atmos.HDR10+.H.265-4ksj File Size............: 22.30 GiB Duration.............: 02:06:53.451 (HH:MM:SS.FFF) Video Bit Rate.......: 24,420 kbps Video Codec..........: HEVC,Main 10@L5 SMPTE ST 2094 App 4, Version 1, HDR10+ Profile B compatible Frame Rate...........: 23.903 fps Resolution...........: 3836 x 1600 Audio#01.............: English (US) 768 kbps CBR 6channels E-AC-3 (ATMOS) Subtitle#01..........: Spanish (Latin America) Latin America Subtitle#02..........: French (CA) Canada

    特技狂人4k(2024年)
    7.1
    ①网盘资源信息:
    剧情简介:特技演员为爱犯险,翻身做主角。   科尔特·西弗斯(瑞恩·高斯林 Ryan Gosling 饰)是一名特技演员,就跟这个行业的每一个特技演员一样,他常常被炸飞、辗压、破窗而出以及从高处坠落地面,全都是为了娱乐观众。如今,他才刚因为意外受伤几乎被迫无法再从事特技表演,平凡的科尔特必须找到失踪的电影明星汤姆·赖德(亚伦·泰勒-约翰逊 Aaron Taylor-Johnson 饰)、破解一个阴谋,并且赢回他一生挚爱乔迪(艾米莉·布朗特 Emily Blunt 饰)的芳心,同时还要继续当一名特技演员。分身乏术、焦头烂额的他有可能一帆风顺吗?

    4 天前/4K(3840x2160)

    异星战境4k

    Video ID : 1 Format : HEVC Format/Info : High Efficiency Video Coding Format profile : Main 10@L5@Main Codec ID : V_MPEGH/ISO/HEVC Duration : 2 h 0 min Bit rate : 10.8 Mb/s Width : 3 840 pixels Height : 2 160 pixels Display aspect ratio : 16:9 Frame rate mode : Constant Frame rate : 24.000 FPS Color space : YUV Chroma subsampling : 4:2:0 Bit depth : 10 bits Bits/(Pixel*Frame) : 0.054 Stream size : 9.02 GiB (86%) Title : BEN.THE.MEN Language : English Default : Yes Forced : Yes Color range : Limited Color primaries : BT.709 Transfer characteristics : BT.709 Matrix coefficients : BT.709 Audio #1 ID : 2 Format : E-AC-3 JOC Format/Info : Enhanced AC-3 with Joint Object Coding Commercial name : Dolby Digital Plus with Dolby Atmos Codec ID : A_EAC3 Duration : 2 h 0 min Bit rate mode : Constant Bit rate : 768 kb/s Channel(s) : 6 channels Channel layout : L R C LFE Ls Rs Sampling rate : 48.0 kHz Frame rate : 31.250 FPS (1536 SPF) Compression mode : Lossy Stream size : 660 MiB (6%) Title : BTM DDP5.1 Atmos Language : English Service kind : Complete Main Default : Yes Forced : Yes Complexity index : 16 Number of dynamic objects : 15 Bed channel count : 1 channel Bed channel configuration : LFE Dialog Normalization : -26 dB compr : -0.28 dB dialnorm_Average : -26 dB dialnorm_Minimum : -26 dB dialnorm_Maximum : -26 dB Audio #2 ID : 3 Format : E-AC-3 Format/Info : Enhanced AC-3 Commercial name : Dolby Digital Plus Codec ID : A_EAC3 Duration : 2 h 0 min Bit rate mode : Constant Bit rate : 960 kb/s Channel(s) : 6 channels Channel layout : L R C LFE Ls Rs Sampling rate : 48.0 kHz Frame rate : 31.250 FPS (1536 SPF) Compression mode : Lossy Stream size : 825 MiB (8%) Title : BTM DDP5.1 Language : English Service kind : Complete Main Default : No Forced : No Dialog Normalization : -31 dB dialnorm_Average : -31 dB dialnorm_Minimum : -31 dB dialnorm_Maximum : -31 dB

    异星战境4k(2024年)
    ①网盘资源信息:
    剧情简介:在未来世界,军事情报分析师Atlas Shepherd(詹妮弗·洛佩兹 Jennifer Lopez 饰),对AI有着深切的不信任感。她加入了一个任务,试图捕捉一个叛逃的机器人,而这个机器人有着神秘的过去。不过,当计划失败时,她唯一拯救人类未来免受AI侵害的希望就是去相信它。
    6.9

    4 天前/4K(3840x2160)

    孤注一掷4k

    Video ID : 1 Format : AVC Format/Info : Advanced Video Codec Format profile : Main@L5.1 Format settings : CABAC / 4 Ref Frames Format settings, CABAC : Yes Format settings, Reference frames : 4 frames Codec ID : avc1 Codec ID/Info : Advanced Video Coding Duration : 2 h 9 min Bit rate mode : Variable Bit rate : 21.5 Mb/s Maximum bit rate : 120 Mb/s Width : 3 840 pixels Height : 2 160 pixels Display aspect ratio : 16:9 Frame rate mode : Variable Frame rate : 25.000 FPS Minimum frame rate : 17.158 FPS Maximum frame rate : 25.000 FPS Color space : YUV Chroma subsampling : 4:2:0 Bit depth : 8 bits Scan type : Progressive Bits/(Pixel*Frame) : 0.104 Stream size : 19.5 GiB (100%) Color range : Limited Color primaries : BT.709 Transfer characteristics : BT.709 Matrix coefficients : BT.709 Codec configuration box : avcC Audio ID : 2 Format : AAC LC Format/Info : Advanced Audio Codec Low Complexity Codec ID : mp4a-40-2 Duration : 2 h 9 min Bit rate mode : Constant Bit rate : 64.0 kb/s Channel(s) : 2 channels Channel layout : L R Sampling rate : 44.1 kHz Frame rate : 43.066 FPS (1024 SPF) Compression mode : Lossy Stream size : 59.5 MiB (0%) Default : Yes Alternate group : 1

    孤注一掷4k(2023年)
    6.9
    ①网盘资源信息:
    剧情简介:南亚某国,由于当地政府监管不力以及有意纵容,诈骗产业极其昌盛,炒股、挖币、网游、电商、博彩等,各种手段层出不穷,花样百出。某个科技产业园内,诈骗团伙头目陆经理(王传君 饰)张狂傲慢,用诡计和暴力统治着这个血泪王国。程序员潘生(张艺兴 饰)离开之前的公司,根据高薪招聘启示 走入了陆经理设下的圈套,成为一名利用网络诈骗的狗推。因为羡慕闺蜜的生活,模特梁安娜(金晨 饰)也飞到异国他乡寻找机会,结果护照被没收,成为陆经理手下利用美色诈骗的工具。进入人间炼狱,仿佛再也见不到活着出去的希望……   电影取材自上万起真实诈骗案例。


2015-2023 www.4ksj.com  4K世界 |网站地图
京ICP证160991号 京公网安备11010802015683号 Copyright ©2023 All Rights Reserved.
    *本站提供的所有电影资源均来自互联网,仅限交流使用,请在下载后的2小时内删除,所有版权皆属原公司所有,如果认为本站侵犯了您的版权,请告知,我们会立即删除。