注册/登陆
游客您好
第三方账号登陆
油脂2 4k.Grease.2.1982.2160p.电影下载
[复制链接]
2023-05-22 发布
  • 4K大师玩家
  • 20
  • 3473
静待花开 发表于 2023-5-22 10:38:54 |阅读模式 打印 上一主题 下一主题

油脂2 4k
80年代(豆瓣:6.5)
  • 电影声道:5.1声道 
  • 电影语言:中文简体   中文繁体   
  • 画质标准 SDR 
  • 资源版本  
  • 帧数/FPS:23.976 Fps
    发布排行: 第部4K原盘
    导  演:Patricia Birch
    制片国家:美国 
    电影分类:剧情 喜剧 歌舞 爱情片 
    分 辨 率:4K(3840x2160)
简介在第一集中代表穷小子的“油脂帮”毕业两年后,代之而起的是“红粉帮”,蜜雪儿菲佛饰演性感的史黛芬妮,是帮中的一员;麦可则是刚从英国转学过来的富家子弟,当他一看见史黛芬妮便喜欢上她,但他并不知道红粉帮的人只跟当地另一个叫“T鸟帮”的男孩约会,为了赢得佳人芳心,麦可必须设法让“T鸟帮”别来阻碍他的追求,还得变成史黛芬妮的梦中情人,真爱会赢得最后的胜利吗?
  • 网盘①


    提取码①
    无链接, 或无权限
    网盘②


    访问码②
    中文字幕


    BT种子 / 磁力链下载
  • 电影信息INFO
    Video
    ID : 1
    Format : HEVC
    Format/Info : High Efficiency Video Coding
    Format profile : Main@L5@High
    Codec ID : V_MPEGH/ISO/HEVC
    Duration : 1 h 54 min
    Bit rate : 15.0 Mb/s
    Width : 3 840 pixels
    Height : 2 160 pixels
    Display aspect ratio : 16:9
    Frame rate mode : Constant
    Frame rate : 23.976 (24000/1001) FPS
    Color space : YUV
    Chroma subsampling : 4:2:0
    Bit depth : 8 bits
    Bits/(Pixel*Frame) : 0.075
    Stream size : 12.0 GiB (64%)
    Default : Yes
    Forced : No
    Color range : Limited
    Color primaries : BT.709
    Transfer characteristics : BT.709
    Matrix coefficients : BT.709

    Audio #1
    ID : 2
    Format : MLP FBA
    Format/Info : Meridian Lossless Packing FBA
    Commercial name : Dolby TrueHD
    Codec ID : A_TRUEHD
    Duration : 1 h 54 min
    Bit rate mode : Variable
    Bit rate : 3 529 kb/s
    Maximum bit rate : 4 380 kb/s
    Channel(s) : 6 channels
    Channel layout : L R C LFE Ls Rs
    Sampling rate : 48.0 kHz
    Frame rate : 1 200.000 FPS (40 SPF)
    Compression mode : Lossless
    Stream size : 2.82 GiB (15%)
    Title : TrueHD 5.1
    Language : English
    Default : Yes
    Forced : No

    Audio #2
    ID : 3
    Format : DTS XLL
    Format/Info : Digital Theater Systems
    Commercial name : DTS-HD Master Audio
    Codec ID : A_DTS
    Duration : 1 h 54 min
    Bit rate mode : Variable
    Bit rate : 3 996 kb/s
    Channel(s) : 6 channels
    Channel layout : C L R Ls Rs LFE
    Sampling rate : 48.0 kHz
    Frame rate : 93.750 FPS (512 SPF)
    Bit depth : 24 bits
    Compression mode : Lossless
    Stream size : 3.19 GiB (17%)
    Title : DTS-HD MA 5.1
    Language : English
    Default : No
    Forced : No

    Audio #3
    ID : 4
    Format : AC-3
    Format/Info : Audio Coding 3
    Commercial name : Dolby Digital
    Codec ID : A_AC3
    Duration : 1 h 54 min
    Bit rate mode : Constant
    Bit rate : 640 kb/s
    Channel(s) : 6 channels
    Channel layout : L R C LFE Ls Rs
    Sampling rate : 48.0 kHz
    Frame rate : 31.250 FPS (1536 SPF)
    Compression mode : Lossy
    Stream size : 524 MiB (3%)
    Title : DD 5.1
    Language : English
    Service kind : Complete Main
    Default : No
    Forced : No

    Text #1
    ID : 5
    Format : UTF-8
    Codec ID : S_TEXT/UTF8
    Codec ID/Info : UTF-8 Plain Text
    Duration : 1 h 53 min
    Bit rate : 69 b/s
    Frame rate : 0.302 FPS
    Count of elements : 2066
    Stream size : 57.9 KiB (0%)
    Title : English (SDH)
    Language : English
    Default : Yes
    Forced : No

    Text #2
    ID : 6
    Format : PGS
    Muxing mode : zlib
    Codec ID : S_HDMV/PGS
    Codec ID/Info : Picture based subtitle format used on BDs/HD-DVDs
    Duration : 1 h 50 min
    Bit rate : 40.7 kb/s
    Frame rate : 0.455 FPS
    Count of elements : 3024
    Stream size : 32.2 MiB (0%)
    Language : English
    Default : No
    Forced : No

    Text #3
    ID : 7
    Format : PGS
    Muxing mode : zlib
    Codec ID : S_HDMV/PGS
    Codec ID/Info : Picture based subtitle format used on BDs/HD-DVDs
    Duration : 1 h 50 min
    Bit rate : 44.6 kb/s
    Frame rate : 0.504 FPS
    Count of elements : 3344
    Stream size : 35.3 MiB (0%)
    Title : SDH
    Language : English
    Default : No
    Forced : No

    Text #4
    ID : 8
    Format : PGS
    Muxing mode : zlib
    Codec ID : S_HDMV/PGS
    Codec ID/Info : Picture based subtitle format used on BDs/HD-DVDs
    Duration : 1 h 54 min
    Bit rate : 28.2 kb/s
    Frame rate : 0.278 FPS
    Count of elements : 1903
    Stream size : 23.0 MiB (0%)
    Language : Bulgarian
    Default : No
    Forced : No

    Text #5
    ID : 9
    Format : PGS
    Muxing mode : zlib
    Codec ID : S_HDMV/PGS
    Codec ID/Info : Picture based subtitle format used on BDs/HD-DVDs
    Duration : 1 h 54 min
    Bit rate : 23.4 kb/s
    Frame rate : 0.374 FPS
    Count of elements : 2562
    Stream size : 19.1 MiB (0%)
    Title : Traditional (Hong Kong)
    Language : Chinese
    Default : No
    Forced : No

    Text #6
    ID : 10
    Format : PGS
    Muxing mode : zlib
    Codec ID : S_HDMV/PGS
    Codec ID/Info : Picture based subtitle format used on BDs/HD-DVDs
    Duration : 1 h 54 min
    Bit rate : 30.1 kb/s
    Frame rate : 0.377 FPS
    Count of elements : 2578
    Stream size : 24.5 MiB (0%)
    Title : Traditional (Taiwan)
    Language : Chinese
    Default : No
    Forced : No

    Text #7
    ID : 11
    Format : PGS
    Muxing mode : zlib
    Codec ID : S_HDMV/PGS
    Codec ID/Info : Picture based subtitle format used on BDs/HD-DVDs
    Duration : 1 h 54 min
    Bit rate : 34.6 kb/s
    Frame rate : 0.371 FPS
    Count of elements : 2542
    Stream size : 28.2 MiB (0%)
    Language : Czech
    Default : No
    Forced : No

    Text #8
    ID : 12
    Format : PGS
    Muxing mode : zlib
    Codec ID : S_HDMV/PGS
    Codec ID/Info : Picture based subtitle format used on BDs/HD-DVDs
    Duration : 1 h 54 min
    Bit rate : 27.4 kb/s
    Frame rate : 0.278 FPS
    Count of elements : 1900
    Stream size : 22.4 MiB (0%)
    Language : Danish
    Default : No
    Forced : No

    Text #9
    ID : 13
    Format : PGS
    Muxing mode : zlib
    Codec ID : S_HDMV/PGS
    Codec ID/Info : Picture based subtitle format used on BDs/HD-DVDs
    Duration : 1 h 54 min
    Bit rate : 20.7 kb/s
    Frame rate : 0.225 FPS
    Count of elements : 1542
    Stream size : 16.9 MiB (0%)
    Language : Dutch
    Default : No
    Forced : No

    Text #10
    ID : 14
    Format : PGS
    Muxing mode : zlib
    Codec ID : S_HDMV/PGS
    Codec ID/Info : Picture based subtitle format used on BDs/HD-DVDs
    Duration : 1 h 54 min
    Bit rate : 32.0 kb/s
    Frame rate : 0.355 FPS
    Count of elements : 2430
    Stream size : 26.1 MiB (0%)
    Language : Finnish
    Default : No
    Forced : No

    Text #11
    ID : 15
    Format : PGS
    Muxing mode : zlib
    Codec ID : S_HDMV/PGS
    Codec ID/Info : Picture based subtitle format used on BDs/HD-DVDs
    Duration : 1 h 54 min
    Bit rate : 32.6 kb/s
    Frame rate : 0.388 FPS
    Count of elements : 2656
    Stream size : 26.6 MiB (0%)
    Language : French
    Default : No
    Forced : No

    Text #12
    ID : 16
    Format : PGS
    Muxing mode : zlib
    Codec ID : S_HDMV/PGS
    Codec ID/Info : Picture based subtitle format used on BDs/HD-DVDs
    Duration : 1 h 54 min
    Bit rate : 23.5 kb/s
    Frame rate : 0.230 FPS
    Count of elements : 1574
    Stream size : 19.2 MiB (0%)
    Language : German
    Default : No
    Forced : No

    Text #13
    ID : 17
    Format : PGS
    Muxing mode : zlib
    Codec ID : S_HDMV/PGS
    Codec ID/Info : Picture based subtitle format used on BDs/HD-DVDs
    Duration : 1 h 54 min
    Bit rate : 33.8 kb/s
    Frame rate : 0.368 FPS
    Count of elements : 2516
    Stream size : 27.5 MiB (0%)
    Language : Greek
    Default : No
    Forced : No

    Text #14
    ID : 18
    Format : PGS
    Muxing mode : zlib
    Codec ID : S_HDMV/PGS
    Codec ID/Info : Picture based subtitle format used on BDs/HD-DVDs
    Duration : 1 h 54 min
    Bit rate : 33.7 kb/s
    Frame rate : 0.368 FPS
    Count of elements : 2522
    Stream size : 27.5 MiB (0%)
    Language : Icelandic
    Default : No
    Forced : No

    Text #15
    ID : 19
    Format : PGS
    Muxing mode : zlib
    Codec ID : S_HDMV/PGS
    Codec ID/Info : Picture based subtitle format used on BDs/HD-DVDs
    Duration : 1 h 54 min
    Bit rate : 33.9 kb/s
    Frame rate : 0.371 FPS
    Count of elements : 2542
    Stream size : 27.6 MiB (0%)
    Language : Italian
    Default : No
    Forced : No

    Text #16
    ID : 20
    Format : PGS
    Muxing mode : zlib
    Codec ID : S_HDMV/PGS
    Codec ID/Info : Picture based subtitle format used on BDs/HD-DVDs
    Duration : 1 h 50 min
    Bit rate : 20.7 kb/s
    Frame rate : 0.307 FPS
    Count of elements : 2032
    Stream size : 16.3 MiB (0%)
    Language : Japanese
    Default : No
    Forced : No

    Text #17
    ID : 21
    Format : PGS
    Muxing mode : zlib
    Codec ID : S_HDMV/PGS
    Codec ID/Info : Picture based subtitle format used on BDs/HD-DVDs
    Duration : 1 h 54 min
    Bit rate : 21.2 kb/s
    Frame rate : 0.374 FPS
    Count of elements : 2562
    Stream size : 17.3 MiB (0%)
    Language : Korean
    Default : No
    Forced : No

    Text #18
    ID : 22
    Format : PGS
    Muxing mode : zlib
    Codec ID : S_HDMV/PGS
    Codec ID/Info : Picture based subtitle format used on BDs/HD-DVDs
    Duration : 1 h 54 min
    Bit rate : 32.6 kb/s
    Frame rate : 0.372 FPS
    Count of elements : 2546
    Stream size : 26.6 MiB (0%)
    Language : Norwegian
    Default : No
    Forced : No

    Text #19
    ID : 23
    Format : PGS
    Muxing mode : zlib
    Codec ID : S_HDMV/PGS
    Codec ID/Info : Picture based subtitle format used on BDs/HD-DVDs
    Duration : 1 h 54 min
    Bit rate : 33.2 kb/s
    Frame rate : 0.368 FPS
    Count of elements : 2522
    Stream size : 27.1 MiB (0%)
    Title : Brazilian
    Language : Portuguese
    Default : No
    Forced : No

    Text #20
    ID : 24
    Format : PGS
    Muxing mode : zlib
    Codec ID : S_HDMV/PGS
    Codec ID/Info : Picture based subtitle format used on BDs/HD-DVDs
    Duration : 1 h 54 min
    Bit rate : 32.2 kb/s
    Frame rate : 0.372 FPS
    Count of elements : 2548
    Stream size : 26.3 MiB (0%)
    Title : Iberian
    Language : Portuguese
    Default : No
    Forced : No

    Text #21
    ID : 25
    Format : PGS
    Muxing mode : zlib
    Codec ID : S_HDMV/PGS
    Codec ID/Info : Picture based subtitle format used on BDs/HD-DVDs
    Duration : 1 h 54 min
    Bit rate : 33.1 kb/s
    Frame rate : 0.372 FPS
    Count of elements : 2544
    Stream size : 27.0 MiB (0%)
    Language : Romanian
    Default : No
    Forced : No

    Text #22
    ID : 26
    Format : PGS
    Muxing mode : zlib
    Codec ID : S_HDMV/PGS
    Codec ID/Info : Picture based subtitle format used on BDs/HD-DVDs
    Duration : 1 h 54 min
    Bit rate : 38.0 kb/s
    Frame rate : 0.447 FPS
    Count of elements : 3060
    Stream size : 31.0 MiB (0%)
    Language : Slovak
    Default : No
    Forced : No

    Text #23
    ID : 27
    Format : PGS
    Muxing mode : zlib
    Codec ID : S_HDMV/PGS
    Codec ID/Info : Picture based subtitle format used on BDs/HD-DVDs
    Duration : 1 h 54 min
    Bit rate : 34.8 kb/s
    Frame rate : 0.383 FPS
    Count of elements : 2620
    Stream size : 28.4 MiB (0%)
    Title : Castilian
    Language : Spanish
    Default : No
    Forced : No

    Text #24
    ID : 28
    Format : PGS
    Muxing mode : zlib
    Codec ID : S_HDMV/PGS
    Codec ID/Info : Picture based subtitle format used on BDs/HD-DVDs
    Duration : 1 h 54 min
    Bit rate : 33.5 kb/s
    Frame rate : 0.374 FPS
    Count of elements : 2562
    Stream size : 27.4 MiB (0%)
    Title : Latin American
    Language : Spanish
    Default : No
    Forced : No

    Text #25
    ID : 29
    Format : PGS
    Muxing mode : zlib
    Codec ID : S_HDMV/PGS
    Codec ID/Info : Picture based subtitle format used on BDs/HD-DVDs
    Duration : 1 h 54 min
    Bit rate : 29.5 kb/s
    Frame rate : 0.370 FPS
    Count of elements : 2530
    Stream size : 24.1 MiB (0%)
    Language : Swedish
    Default : No
    Forced : No

    Text #26
    ID : 30
    Format : PGS
    Muxing mode : zlib
    Codec ID : S_HDMV/PGS
    Codec ID/Info : Picture based subtitle format used on BDs/HD-DVDs
    Duration : 1 h 54 min
    Bit rate : 26.6 kb/s
    Frame rate : 0.373 FPS
    Count of elements : 2550
    Stream size : 21.7 MiB (0%)
    Language : Thai
    Default : No
    Forced : No

    Text #27
    ID : 31
    Format : PGS
    Muxing mode : zlib
    Codec ID : S_HDMV/PGS
    Codec ID/Info : Picture based subtitle format used on BDs/HD-DVDs
    Duration : 1 h 54 min
    Bit rate : 34.5 kb/s
    Frame rate : 0.371 FPS
    Count of elements : 2538
    Stream size : 28.2 MiB (0%)
    Language : Turkish
    Default : No
    Forced : No

    Menu
    00:00:00.000 : en:A New School Year
    00:04:29.394 : en:First Day
    00:10:43.601 : en:Extracurricular Activities
    00:16:46.797 : en:Bowling
    00:22:41.986 : en:Independant Kisser
    00:28:36.673 : en:Talent Show Auditions
    00:31:56.623 : en:Not Stephanie\\\'s Kind of Guy
    00:38:34.395 : en:Sex Education
    00:44:58.321 : en:Rehearsals
    00:51:07.231 : en:Mystery Man
    00:58:04.773 : en:Bomb Shelter
    01:04:45.590 : en:\\"How About a Ride?\\"
    01:10:36.441 : en:On the Prowl
    01:13:31.699 : en:Mr. Right
    01:24:13.465 : en:Deadman\\\'s Curve
    01:31:24.437 : en:Calendar Girls
    01:38:34.617 : en:Creating a Diversion
    01:44:30.639 : en:Michael Is Accepted

油脂2 4k.Grease.2.1982.2160p.WEB-DL.x265.8bit.SDR.DTS-HD.MA.TrueHD.5.1-4k电影下载

油脂2 4k.Grease.2.1982.2160p.WEB-DL.x265.8bit.SDR.DTS-HD.MA.TrueHD.5.1-简繁中字【18.79 GB】
磁力链下载:
magnet:?xt=urn:btih:040fbca07906232c1e70bfdbd344d1b461cb2097&dn

精彩评论8

7旭日东升7 发表于 2023-5-22 11:46:02
谢谢分享
回复 支持 反对

使用道具 举报

stonezb 发表于 2023-5-23 09:06:08
谢谢分享老片
回复 支持 反对

使用道具 举报

WallaceN1 发表于 2023-5-23 10:09:07
这清晰度太爱了呀,谢谢了
回复 支持 反对

使用道具 举报

世爵38 发表于 2023-5-26 15:50:34
一看海报就知是80年代的影片
回复 支持 反对

使用道具 举报

面积哈啊 发表于 2023-6-3 13:49:34
回复 支持 反对

使用道具 举报

shine288 发表于 2023-6-13 09:29:43
感谢分享
回复 支持 反对

使用道具 举报

您需要登录后才可以回帖 登录 | 立即注册

本版积分规则

推荐影视全站推荐影视下载
  • 8.4

    5 天前/4K(3840x2160)

    唐人街4k

    Disc Title: Chinatown Disc Label: Chinatown 1974 2160p USA UHD Blu-ray DV HDR HEVC TrueHD 5.1-4ksj Disc Size: 96,123,963,635 bytes Protection: AACS2 Playlist: 00040.MPLS Size: 81,413,253,120 bytes Length: 2:10:29.530 Total Bitrate: 83.19 Mbps Video: MPEG-H HEVC Video / 70839 kbps / 2160p / 23.976 fps / 16:9 / Main 10 @ Level 5.1 @ High / 10 bits / HDR10 / BT.2020 * Video: MPEG-H HEVC Video / 4106 kbps / 1080p / 23.976 fps / 16:9 / Main 10 @ Level 5.1 @ High / 10 bits / Dolby Vision / BT.2020 Audio: English / Dolby TrueHD Audio / 5.1 / 48 kHz / 1044 kbps / 16-bit (AC3 Embedded: 5.1 / 48 kHz / 640 kbps / DN -27dB) Audio: English / Dolby Digital Audio / 2.0 / 48 kHz / 224 kbps / DN -27dB Audio: German / Dolby Digital Audio / 2.0 / 48 kHz / 224 kbps / DN -27dB Audio: Spanish / Dolby Digital Audio / 2.0 / 48 kHz / 224 kbps / DN -27dB Audio: French / Dolby Digital Audio / 2.0 / 48 kHz / 224 kbps / DN -27dB Audio: Italian / Dolby Digital Audio / 2.0 / 48 kHz / 224 kbps / DN -27dB Audio: English / Dolby Digital Audio / 2.0 / 48 kHz / 224 kbps / DN -27dB Subtitle: English / 36.741 kbps Subtitle: English / 40.615 kbps Subtitle: Danish / 31.611 kbps Subtitle: German / 31.779 kbps Subtitle: Spanish / 28.555 kbps Subtitle: French / 26.661 kbps Subtitle: Italian / 30.092 kbps Subtitle: Japanese / 20.370 kbps Subtitle: Korean / 22.948 kbps Subtitle: Dutch / 28.257 kbps Subtitle: Norwegian / 30.388 kbps Subtitle: Finnish / 34.558 kbps Subtitle: Swedish / 28.921 kbps Subtitle: English / 62.264 kbps Subtitle: German / 59.609 kbps Subtitle: Spanish / 53.446 kbps Subtitle: French / 51.638 kbps Subtitle: Italian / 51.080 kbps Subtitle: Japanese / 39.189 kbps Subtitle: Korean / 41.517 kbps

    唐人街4k(70年代)
    8.4
    ①网盘资源信息:
    剧情简介:1937年的洛山矶唐人街,警员杰克(杰克•尼科尔森 Jack Nicholson 饰)因不满这里的黑暗,辞职当起了私家侦探。这天,一个自称莫拉雷太太的女子请杰克调查丈夫的外遇,杰克欣然接受。杰克发现莫拉雷原来是当地水利总工程师,正在为兴建水坝问题和当地农民争执。随后有人给 了杰克一些证明莫拉雷偷情的照片,隔天早上真正的莫拉雷太太却找上门来要求杰克停止调查莫拉雷。   事情变得越来越迷离,杰克决心追查下去……
    7.1

    3 天前/4K(3840x2160)

    盟军敢死队4K

    DISC INFO Disc Title: The Ministry Of Ungentlemanly Warfare - Ultra HD Blu-ray™ Disc Label: 盟军敢死队.The.Ministry.of.Ungentlemanly.Warfare.2024.UHD.BluRay.2160p.HEVC.Atmos.TrueHD7.1-4KSJ Disc Size: 85,742,605,217 bytes Protection: AACS2 Extras: Ultra HD, BD-Java BDInfo: 0.7.5.5 PLAYLIST REPORT: Name: 00800.MPLS Length: 2:00:21.214 (h:m:s.ms) Size: 80,520,738,816 bytes Total Bitrate: 89.20 Mbps VIDEO: Codec Bitrate Description ----- ------- ----------- MPEG-H HEVC Video 77870 kbps 2160p / 23.976 fps / 16:9 / Main 10 @ Level 5.1 @ High / 10 bits / HDR10 / BT.2020 AUDIO: Codec Language Bitrate Description ----- -------- ------- ----------- Dolby TrueHD/Atmos Audio English 4819 kbps 7.1 / 48 kHz / 4179 kbps / 24-bit (AC3 Embedded: 5.1 / 48 kHz / 640 kbps / DN -31dB) Dolby Digital Audio English 192 kbps 2.0 / 48 kHz / 192 kbps / DN -27dB Dolby Digital Audio Spanish 640 kbps 5.1 / 48 kHz / 640 kbps / DN -27dB SUBTITLES: Codec Language Bitrate Description ----- -------- ------- ----------- Presentation Graphics English 34.002 kbps Presentation Graphics English 50.632 kbps Presentation Graphics Spanish 34.105 kbps Presentation Graphics Chinese 126.616 kbps 简体特效 Presentation Graphics Chinese 150.584 kbps 简英特效 Presentation Graphics Chinese 127.581 kbps 繁體特效 Presentation Graphics Chinese 151.551 kbps 繁英特效 FILES: Name Time In Length Size Total Bitrate ---- ------- ------ ---- ------------- 00278.M2TS 0:00:00.000 2:00:21.214 80,520,738,816 89,205

    盟军敢死队4K(2024年)
    7.1
    ①网盘资源信息:
    剧情简介:该片改编自二战英国历史学家达米安·刘易斯的同名畅销书《非绅士战争部:丘吉尔的秘密战士如何点燃欧洲并催生现代黑色行动》。影片讲述了丘吉尔领导的秘密作战分队的真实而离奇故事。这支小分队采用非传统、完全"非绅士"的作战技巧与纳粹进行斗争,从而改变了战争的进程。故事发生于1940年二战期间,德国持续对英国进行轰炸,并利用U型潜艇破坏英国的补给线。一些英国政府人员主张投降,但丘吉尔决心不认输,而是改变战争规则,进行强力反击。根据情报,德国大西洋U型潜艇舰队的保养、维修和武装工作都在尼日利亚的一个小港口进行。丘吉尔看到了摧毁德国战争资产、夺回优势的机会。然而,他意识到直接攻击这个西班牙殖民地可能导致西班牙与德国结盟,因此便组建了一个秘密的作战分队,由古斯·马奇·菲利普斯上尉(亨利·卡维尔 饰)带领,发动秘密行动破坏舰队。当最初计划的炸毁舰队行动因船只坚固、港口浅水而无法实施时,小分队迅速制定了偷船计划。他们大胆的行动取得了成功,摧毁了希特勒战争机器的重要组成部分,重新打开通往英国的补给线,从而加速了德国的战败。
    5.1

    3 天前/4K(3840x2160)

    超能敢死队:冰封之城4k

    DISC INFO: Disc Title: Ghostbusters.Frozen.Empire.2024.2160p.UHD.Blu-ray.HEVC.Atmos.TrueHD7.1-DiY@4KSJ Disc Size: 86,936,623,524 bytes Protection: AACS2 Extras: Ultra HD, BD-Java BDInfo: 0.7.6.1 (compatible layout created by DVDFab 12.1.1.5) PLAYLIST REPORT: Name: 00001.MPLS Length: 1:55:05.940 (h:m:s.ms) Size: 84,265,113,600 bytes Total Bitrate: 97.61 Mbps (*) Indicates included stream hidden by this playlist. VIDEO: Codec Bitrate Description ----- ------- ----------- MPEG-H HEVC Video 75502 kbps 2160p / 23.976 fps / 16:9 / Main 10 @ Level 5.1 @ High / 4:2:0 / 10 bits / 1000nits / HDR10 / BT.2020 * MPEG-H HEVC Video 2108 kbps (2.72%) 1080p / 23.976 fps / 16:9 / Main 10 @ Level 5.1 @ High / 4:2:0 / 10 bits / 1000nits / Dolby Vision FEL / BT.2020 AUDIO: Codec Language Bitrate Description ----- -------- ------- ----------- Dolby TrueHD/Atmos Audio English 5046 kbps 7.1+11 objects / 48 kHz / 4406 kbps / 24-bit (AC3 Core: 5.1 / 48 kHz / 640 kbps) Dolby Digital Audio English 640 kbps 5.1 / 48 kHz / 640 kbps DTS-HD Master Audio French 2255 kbps 5.1 / 48 kHz / 2255 kbps / 16-bit (DTS Core: 5.1 / 48 kHz / 1509 kbps / 16-bit) Dolby Digital Audio French 640 kbps 5.1 / 48 kHz / 640 kbps DTS-HD Master Audio Spanish 2249 kbps 5.1 / 48 kHz / 2249 kbps / 16-bit (DTS Core: 5.1 / 48 kHz / 1509 kbps / 16-bit) DTS-HD Master Audio Thai 2246 kbps 5.1 / 48 kHz / 2246 kbps / 16-bit (DTS Core: 5.1 / 48 kHz / 1509 kbps / 16-bit) Dolby Digital Audio English 192 kbps 2.0 / 48 kHz / 192 kbps SUBTITLES: Codec Language Bitrate Description ----- -------- ------- ----------- Presentation Graphics English 35.908 kbps Presentation Graphics English 29.739 kbps Presentation Graphics French 24.924 kbps Presentation Graphics Spanish 28.895 kbps Presentation Graphics French 1.067 kbps Presentation Graphics Chinese 25.358 kbps Presentation Graphics Chinese 22.261 kbps Presentation Graphics Korean 21.141 kbps Presentation Graphics Thai 24.745 kbps Presentation Graphics English 51.835 kbps Presentation Graphics Chinese 41.088 kbps Presentation Graphics Korean 37.538 kbps Presentation Graphics Thai 50.262 kbps Presentation Graphics Chinese 27.532 kbps Presentation Graphics Chinese 28.048 kbps Presentation Graphics Chinese 43.927 kbps Presentation Graphics Chinese 44.433 kbps

    ①网盘资源信息:
    剧情简介: 神秘怪物突袭,整个纽约城被冰封。新生代超能敢死队来到位于纽约市消防局的敢死队总部基地,在初代敢死队成员的帮助下重拾经典装备,拯救危在旦夕的城市。
    8.6

    3 天前/4K(3840x2160)

    精武英雄4k

    Disc Title: 精武英雄.Fist.of.Legend.1994.2160p.GBR.UHD.Blu-ray.HEVC.LPCM.2.0.-4ksj.net Disc Size: 80,096,194,567 bytes Protection: AACS2 Playlist: 00003.MPLS Size: 79,429,939,200 bytes Length: 1:42:06.370 Total Bitrate: 103.72 Mbps Video: MPEG-H HEVC Video / 93952 kbps / 2160p / 23.976 fps / 16:9 / Main 10 @ Level 5.1 @ High / 4:2:0 / 10 bits / 1000nits / HDR10 / BT.2020 Video: * MPEG-H HEVC Video / 108 kbps / 1080p / 23.976 fps / 16:9 / Main 10 @ Level 5.1 @ High / 4:2:0 / 10 bits / 1000nits / Dolby Vision MEL / BT.2020 Audio: Chinese / LPCM Audio / 2.0 / 48 kHz / 2304 kbps / 24-bit Audio: Chinese / LPCM Audio / 2.0 / 48 kHz / 2304 kbps / 24-bit Audio: English / Dolby Digital Audio / 2.0 / 48 kHz / 448 kbps Subtitle: English / 37.777 kbps Subtitle: English / 37.802 kbps

    精武英雄4k(90年代)
    8.6
    ①网盘资源信息:
    剧情简介:20年代末,为完成师父的志愿,陈真(李连杰 饰)到东洋学先进技术,他喜欢着日本女孩山田光子(中山忍 饰)。因为师父霍元甲之死,陈真回到中国,协助师父之子霍廷恩(钱小豪 饰)主持精武门的业务,不料却引起了他的妒忌,师兄弟之间引发权力之争。   另一方面,陈真追查师父死因,怀疑是日军 军官藤田刚(周比利 饰)暗中使用慢性毒药杀死霍元甲。陈真请医生验尸,证实师父确系中毒而死。藤田刚恐阴谋败露,杀人嫁祸,展开了连场恶斗。不久,藤田刚挑战精武门,他诱使日本黑龙会总教头船越文夫向精武馆挑战。比武之日,双方开展了一场惊心动魄的决战。
    7.5

    前天 12:00/4K(3840x2160)

    九龙城寨之围城4K

    General............: Twilight.of.the.Warriors.Walled.In.2024.2160p.HQ.WEB-DL.H265.60fps.DTS5.1.2Audio-4KSJ Duration...........: 02:05:05.687 (HH:MM:SS:FF) RELEASE.SIZE.......: 24.5 GiB VIDEO.CODEC........: HEVC Main 10@L5.1@Main FRAMERATE..........: 60.000 fps VIDEO.BITRATE......: 25.0 Mb/s RESOLUTION.........: 3840 x 1608 ASPECT.RATIO.......: 2.40:1 Audio..............: DTS 6 channels 768 kb/s Chinese Cantonese [DTS5.1] Audio..............: DTS 6 channels 768 kb/s Chinese Mandarin [DTS5.1] Audio..............: E-AC-3 6 channels 256 kb/s Chinese Cantonese [DDP5.1] Audio..............: E-AC-3 6 channels 256 kb/s Chinese Mandarin [DDP5.1] Audio..............: AAC 6 channels 256 kb/s Chinese Cantonese [AAC5.1] Audio..............: AAC 6 channels 256 kb/s Chinese Mandarin [AAC5.1] Audio..............: AAC 2 channels 192 kb/s Chinese Cantonese [AAC2.0] Audio..............: AAC 2 channels 256 kb/s Chinese Mandarin [AAC2.0]

    ①网盘资源信息:
    剧情简介:上世纪八十年代,恶名昭著的“三不管”地带九龙城寨中黑帮盘踞,危机四伏。落难青年陈洛军(林峯 饰)因逃难误闯,意外被“大人物”龙卷风(古天乐 饰)搭救,更结下真挚兄弟情义。与此同时,觊觎城寨许久的恶人帮掀起了一轮轮夺寨狠斗,保卫家寨的高燃热血之战随即爆发!   本片根据余儿原著小说《九龙城寨》改编。


2015-2023 www.4ksj.com  4K世界 |网站地图
京ICP证160991号 京公网安备11010802015683号 Copyright ©2023 All Rights Reserved.
    *本站提供的所有电影资源均来自互联网,仅限交流使用,请在下载后的2小时内删除,所有版权皆属原公司所有,如果认为本站侵犯了您的版权,请告知,我们会立即删除。