注册/登陆
游客您好
第三方账号登陆
爱探险的朵拉:消失的黄金城4K 2019.2160p电影下载
[复制链接]
2023-05-30 发布
  • 黄金会员
  • 0
  • 1490
青衫烟雨 发表于 2023-5-30 00:45:45 |阅读模式 打印 上一主题 下一主题

爱探险的朵拉:消失的黄金城4K
2019年(豆瓣:6.4)
  • 电影声道:7.1声道 
  • 电影语言:中文简体   中文繁体   
  • 画质标准 HDR 
  • 资源版本  
  • 帧数/FPS:23.976 Fps
    发布排行: 第部4K原盘
    导  演:詹姆斯·博宾
    制片国家:美国 
    电影分类:冒险 
    分 辨 率:4K(3840x2160)
简介朵拉(伊莎贝拉·莫奈 Isabela Moner 饰)自幼和父母一起生活在丛林中,一天,父母决定去寻找传说中的黄金城,于是将朵拉托付给了住在城里的表格蒂亚戈(杰弗里·沃尔伯格 Jeffrey Wahlberg 饰)一家人照顾,就这样,野性十足的朵拉进城开始了她的高中生活。
  从小自由自在惯了的朵拉当然无法适应学校里的生活,闹出了许多的笑话。然而,在一次学校组织的参观活动中,她和朋友们遭到了神秘罪犯的绑架,被绑回了丛林中,这对于朵拉来说简直就是如鱼得水。朵拉凭借着自己丰富的野外生存经验救下了同学们,不仅如此,她还要去解救同样遭到了绑架的双亲。
  • 网盘①


    提取码①
    无链接, 或无权限
    网盘②


    访问码②
    中文字幕


    BT种子 / 磁力链下载
  • 电影信息INFO
    Video
    ID : 1
    Format : HEVC
    Format/Info : High Efficiency Video Coding
    Format profile : Main 10@L5@Main
    HDR format : Dolby Vision, Version 1.0, dvhe.08.06, BL+RPU, HDR10 compatible / SMPTE ST 2094 App 4, Version 1, HDR10+ Profile B compatible
    Codec ID : V_MPEGH/ISO/HEVC
    Duration : 1 h 42 min
    Bit rate : 14.0 Mb/s
    Width : 3 840 pixels
    Height : 2 160 pixels
    Display aspect ratio : 16:9
    Frame rate mode : Constant
    Frame rate : 23.976 (24000/1001) FPS
    Color space : YUV
    Chroma subsampling : 4:2:0 (Type 2)
    Bit depth : 10 bits
    Bits/(Pixel*Frame) : 0.070
    Stream size : 10.00 GiB (58%)
    Language : English
    Default : Yes
    Forced : No
    Color range : Limited
    Color primaries : BT.2020
    Transfer characteristics : PQ
    Matrix coefficients : BT.2020 non-constant
    Mastering display color primaries : Display P3
    Mastering display luminance : min: 0.0001 cd/m2, max: 1000 cd/m2

    Audio #1
    ID : 2
    Format : MLP FBA 16-ch
    Format/Info : Meridian Lossless Packing FBA with 16-channel presentation
    Commercial name : Dolby TrueHD with Dolby Atmos
    Codec ID : A_TRUEHD
    Duration : 1 h 42 min
    Bit rate mode : Variable
    Bit rate : 4 404 kb/s
    Maximum bit rate : 7 182 kb/s
    Channel(s) : 8 channels
    Channel layout : L R C LFE Ls Rs Lb Rb
    Sampling rate : 48.0 kHz
    Frame rate : 1 200.000 FPS (40 SPF)
    Compression mode : Lossless
    Stream size : 3.15 GiB (18%)
    Title : TrueHD 7.1 Atmos
    Language : English
    Default : Yes
    Forced : No
    Number of dynamic objects : 11
    Bed channel count : 1 channel
    Bed channel configuration : LFE

    Audio #2
    ID : 3
    Format : DTS XLL
    Format/Info : Digital Theater Systems
    Commercial name : DTS-HD Master Audio
    Codec ID : A_DTS
    Duration : 1 h 42 min
    Bit rate mode : Variable
    Bit rate : 4 123 kb/s
    Channel(s) : 8 channels
    Channel layout : C L R LFE Lb Rb Lss Rss
    Sampling rate : 48.0 kHz
    Frame rate : 93.750 FPS (512 SPF)
    Bit depth : 24 bits
    Compression mode : Lossless
    Stream size : 2.95 GiB (17%)
    Title : DTS-HD MA 7.1
    Language : English
    Default : No
    Forced : No

    Audio #3
    ID : 4
    Format : AC-3
    Format/Info : Audio Coding 3
    Commercial name : Dolby Digital
    Codec ID : A_AC3
    Duration : 1 h 42 min
    Bit rate mode : Constant
    Bit rate : 640 kb/s
    Channel(s) : 6 channels
    Channel layout : L R C LFE Ls Rs
    Sampling rate : 48.0 kHz
    Frame rate : 31.250 FPS (1536 SPF)
    Compression mode : Lossy
    Stream size : 469 MiB (3%)
    Title : DD 5.1
    Language : English
    Service kind : Complete Main
    Default : No
    Forced : No

    Audio #4
    ID : 5
    Format : E-AC-3 JOC
    Format/Info : Enhanced AC-3 with Joint Object Coding
    Commercial name : Dolby Digital Plus with Dolby Atmos
    Codec ID : A_EAC3
    Duration : 1 h 42 min
    Bit rate mode : Constant
    Bit rate : 768 kb/s
    Channel(s) : 6 channels
    Channel layout : L R C LFE Ls Rs
    Sampling rate : 48.0 kHz
    Frame rate : 31.250 FPS (1536 SPF)
    Compression mode : Lossy
    Stream size : 563 MiB (3%)
    Title : DDP 5.1 Atmos
    Language : English (US)
    Service kind : Complete Main
    Default : No
    Forced : No
    Complexity index : 16
    Number of dynamic objects : 15
    Bed channel count : 1 channel
    Bed channel configuration : LFE

    Text #1
    ID : 6
    Format : UTF-8
    Codec ID : S_TEXT/UTF8
    Codec ID/Info : UTF-8 Plain Text
    Duration : 1 h 32 min
    Bit rate : 0 b/s
    Frame rate : 0.004 FPS
    Count of elements : 22
    Stream size : 533 Bytes (0%)
    Title : FORCED
    Language : English
    Default : No
    Forced : Yes

    Text #2
    ID : 7
    Format : UTF-8
    Codec ID : S_TEXT/UTF8
    Codec ID/Info : UTF-8 Plain Text
    Duration : 1 h 37 min
    Bit rate : 61 b/s
    Frame rate : 0.254 FPS
    Count of elements : 1478
    Stream size : 43.4 KiB (0%)
    Language : English
    Default : Yes
    Forced : No

    Text #3
    ID : 8
    Format : UTF-8
    Codec ID : S_TEXT/UTF8
    Codec ID/Info : UTF-8 Plain Text
    Duration : 1 h 41 min
    Bit rate : 66 b/s
    Frame rate : 0.277 FPS
    Count of elements : 1689
    Stream size : 49.2 KiB (0%)
    Title : SDH
    Language : English
    Default : No
    Forced : No

    Text #4
    ID : 9
    Format : PGS
    Muxing mode : zlib
    Codec ID : S_HDMV/PGS
    Codec ID/Info : Picture based subtitle format used on BDs/HD-DVDs
    Duration : 1 h 32 min
    Bit rate : 416 b/s
    Frame rate : 0.009 FPS
    Count of elements : 48
    Stream size : 282 KiB (0%)
    Title : Forced
    Language : English
    Default : No
    Forced : Yes

    Text #5
    ID : 10
    Format : PGS
    Muxing mode : zlib
    Codec ID : S_HDMV/PGS
    Codec ID/Info : Picture based subtitle format used on BDs/HD-DVDs
    Duration : 1 h 37 min
    Bit rate : 39.8 kb/s
    Frame rate : 0.481 FPS
    Count of elements : 2798
    Stream size : 27.6 MiB (0%)
    Language : English
    Default : No
    Forced : No

    Text #6
    ID : 11
    Format : PGS
    Muxing mode : zlib
    Codec ID : S_HDMV/PGS
    Codec ID/Info : Picture based subtitle format used on BDs/HD-DVDs
    Duration : 1 h 41 min
    Bit rate : 45.5 kb/s
    Frame rate : 0.561 FPS
    Count of elements : 3420
    Stream size : 33.0 MiB (0%)
    Title : SDH
    Language : English
    Default : No
    Forced : No

    Text #7
    ID : 12
    Format : PGS
    Muxing mode : zlib
    Codec ID : S_HDMV/PGS
    Codec ID/Info : Picture based subtitle format used on BDs/HD-DVDs
    Duration : 1 h 41 min
    Bit rate : 30.8 kb/s
    Frame rate : 0.463 FPS
    Count of elements : 2820
    Stream size : 22.4 MiB (0%)
    Title : Cantonese
    Language : Chinese
    Default : No
    Forced : No

    Text #8
    ID : 13
    Format : PGS
    Muxing mode : zlib
    Codec ID : S_HDMV/PGS
    Codec ID/Info : Picture based subtitle format used on BDs/HD-DVDs
    Duration : 1 h 41 min
    Bit rate : 29.6 kb/s
    Frame rate : 0.463 FPS
    Count of elements : 2822
    Stream size : 21.5 MiB (0%)
    Title : Mandarin Traditional
    Language : Chinese
    Default : No
    Forced : No

    Text #9
    ID : 14
    Format : PGS
    Muxing mode : zlib
    Codec ID : S_HDMV/PGS
    Codec ID/Info : Picture based subtitle format used on BDs/HD-DVDs
    Duration : 1 h 41 min
    Bit rate : 40.3 kb/s
    Frame rate : 0.459 FPS
    Count of elements : 2800
    Stream size : 29.3 MiB (0%)
    Language : French
    Default : No
    Forced : No

    Text #10
    ID : 15
    Format : PGS
    Muxing mode : zlib
    Codec ID : S_HDMV/PGS
    Codec ID/Info : Picture based subtitle format used on BDs/HD-DVDs
    Duration : 1 h 41 min
    Bit rate : 31.9 kb/s
    Frame rate : 0.463 FPS
    Count of elements : 2820
    Stream size : 23.2 MiB (0%)
    Language : Hindi
    Default : No
    Forced : No

    Text #11
    ID : 16
    Format : PGS
    Muxing mode : zlib
    Codec ID : S_HDMV/PGS
    Codec ID/Info : Picture based subtitle format used on BDs/HD-DVDs
    Duration : 1 h 37 min
    Bit rate : 28.2 kb/s
    Frame rate : 0.485 FPS
    Count of elements : 2828
    Stream size : 19.6 MiB (0%)
    Language : Japanese
    Default : No
    Forced : No

    Text #12
    ID : 17
    Format : PGS
    Muxing mode : zlib
    Codec ID : S_HDMV/PGS
    Codec ID/Info : Picture based subtitle format used on BDs/HD-DVDs
    Duration : 1 h 41 min
    Bit rate : 29.5 kb/s
    Frame rate : 0.464 FPS
    Count of elements : 2826
    Stream size : 21.4 MiB (0%)
    Language : Korean
    Default : No
    Forced : No

    Text #13
    ID : 18
    Format : PGS
    Muxing mode : zlib
    Codec ID : S_HDMV/PGS
    Codec ID/Info : Picture based subtitle format used on BDs/HD-DVDs
    Duration : 1 h 41 min
    Bit rate : 42.6 kb/s
    Frame rate : 0.462 FPS
    Count of elements : 2814
    Stream size : 31.0 MiB (0%)
    Language : Malay
    Default : No
    Forced : No

    Text #14
    ID : 19
    Format : PGS
    Muxing mode : zlib
    Codec ID : S_HDMV/PGS
    Codec ID/Info : Picture based subtitle format used on BDs/HD-DVDs
    Duration : 1 h 41 min
    Bit rate : 35.9 kb/s
    Frame rate : 0.446 FPS
    Count of elements : 2716
    Stream size : 26.1 MiB (0%)
    Title : Latin American
    Language : Spanish
    Default : No
    Forced : No

    Text #15
    ID : 20
    Format : PGS
    Muxing mode : zlib
    Codec ID : S_HDMV/PGS
    Codec ID/Info : Picture based subtitle format used on BDs/HD-DVDs
    Duration : 1 h 41 min
    Bit rate : 30.6 kb/s
    Frame rate : 0.463 FPS
    Count of elements : 2824
    Stream size : 22.3 MiB (0%)
    Language : Thai
    Default : No
    Forced : No

    Menu
    00:00:00.000 : en:Chapter 01
    00:04:52.417 : en:Chapter 02
    00:09:49.088 : en:Chapter 03
    00:15:35.643 : en:Chapter 04
    00:20:26.767 : en:Chapter 05
    00:25:47.838 : en:Chapter 06
    00:35:15.780 : en:Chapter 07
    00:42:53.738 : en:Chapter 08
    00:47:13.664 : en:Chapter 09
    00:52:57.883 : en:Chapter 10
    00:55:41.463 : en:Chapter 11
    01:01:02.659 : en:Chapter 12
    01:06:11.301 : en:Chapter 13
    01:10:23.136 : en:Chapter 14
    01:13:52.136 : en:Chapter 15
    01:18:26.327 : en:Chapter 16
    01:22:39.496 : en:Chapter 17
    01:32:57.322 : en:Chapter 18
    01:38:30.238 : en:Chapter 19

爱探险的Dora:勇闯黄金迷城(港) / 朵拉与失落的黄金城(台) / 爱探险的朵拉 / Dora the Explorer/爱探险的朵拉:消失的黄金城4K Dora.and.the.Lost.City.of.Gold.2019.2160p.WEB-DL.x265.10bit.HDR10Plus.DTS-HD.MA.TrueHD.7.1.Atmos-4K电影资源下载

爱探险的朵拉:消失的黄金城4K Dora.and.the.Lost.City.of.Gold.2019.2160p.WEB-DL.x265.10bit.HDR10Plus.DTS-HD.MA.TrueHD.7.1.Atmos
【简繁中字】【HDR10Plus 17.29 GB】
磁力链免费下载:

magnet:?xt=urn:btih:7c4ad030cec9052304b61d7493e0bbd4291f55ae&dn

爱探险的朵拉:消失的黄金城4K电影中文字幕下载 感谢K友@shine288分享的字幕
https://www.4ksj.com/thread-76903-1-1.html

精彩评论11

stonezb 发表于 2023-5-30 08:37:02
这部电影频道播过多次,谢谢分享
回复 支持 反对

使用道具 举报

xu6858941 发表于 2023-6-1 09:36:16
感谢分享
回复 支持 反对

使用道具 举报

jhr07 发表于 2023-6-1 22:48:55
这都有真人版?
回复 支持 反对

使用道具 举报

面积哈啊 发表于 2023-6-3 13:48:25
回复 支持 反对

使用道具 举报

awsada 发表于 2023-6-7 22:06:45
感恩楼主分享
回复 支持 反对

使用道具 举报

jy00819677 发表于 2023-6-11 17:53:08
顶!!!!感谢分享!!!
回复 支持 反对

使用道具 举报

沙棘草 发表于 2023-7-1 17:27:46
谢谢无私分享
回复 支持 反对

使用道具 举报

常乐斋主人 发表于 2023-7-3 10:18:37
看了两遍,很好看。
回复 支持 反对

使用道具 举报

您需要登录后才可以回帖 登录 | 立即注册

本版积分规则

推荐影视全站推荐影视下载
  • 4 天前/4K(3840x2160)

    暗影守卫4k

    DISC INFO Disc Title: Born to Kill Disc Label: 暗影守卫.Darkness.of.Man.2024.GER.UHD.Blu-ray.2160p.DV.HEVC.DTS-HD.MA.5.1-4KSJ Disc Size: 62,593,686,033 bytes Protection: AACS2 Extras: Ultra HD BDInfo: 0.7.5.5 PLAYLIST REPORT: Name: 00000.MPLS Length: 1:48:53.902 (h:m:s.ms) Size: 60,046,932,288 bytes Total Bitrate: 73.52 Mbps (*) Indicates included stream hidden by this playlist. VIDEO: Codec Bitrate Description ----- ------- ----------- MPEG-H HEVC Video 62545 kbps 2160p / 23.976 fps hao4k/ 16:9 / Main 10 @ Level 5.1 @ High / 10 bits / HDR10 / BT.2020 * MPEG-H HEVC Video 67 kbps 1080p / 23.976 fps / 16:9 / Main 10 @ Level 5.1 @ High / 10 bits / Dolby Vision / BT.2020 AUDIO: Codec Language Bitrate Description ----- -------- ------- ----------- DTS-HD Master Audio German 3624 kbps 5.1 / 48 kHz / 3624 kbps / 24-bit (DTS Core: 5.1 / 48 kHz / 1509 kbps / 24-bit) DTS-HD Master Audio English 3544 kbps 5.1 / 48 kHz / 3544 kbps / 24-bit (DTS Core: 5.1 / 48 kHz / 1509 kbps / 24-bit) SUBTITLES: Codec Language Bitrate Description ----- -------- ------- ----------- Presentation Graphics German 0.207 kbps Presentation Graphics German 25.266 kbps Presentation Graphics English 0.767 kbps Presentation Graphics Chinese 18.343 kbps 简体中文 Presentation Graphics Chinese 32.032 kbps 简英双语 Presentation Graphics Chinese 18.933 kbps 繁体中文 Presentation Graphics Chinese 32.626 kbps 繁英双语 FILES: Name Time In Length Size Total Bitrate ---- ------- ------ ---- ------------- 00000.M2TS 0:00:00.000 1:48:53.902 60,046,932,288 73,520

    暗影守卫4k(2024年)
    ①网盘资源信息:
    剧情简介: 罗素·哈奇(尚格云顿)是国际刑警组织的特工,他承担起了对杰登的父亲形象的角色,因为杰登的生父在一次例行突袭中丧生。多年后,哈奇发现自己保护着的杰登和他的祖父,正在正面临一群无情的帮派之间的全面领土争夺战;哈奇为此不惜一切来保护杰登,并与任何妨碍他的人战斗。

    7 天前/4K(3840x2160)

    制暴4k

    General............: Curbing.Violence.2024.2160p.WEB-DL.H265.DV.DDP5.1.Atmos-4ksj Duration...........: 01:39:53.070 (HH:MM:SS:FF) RELEASE.SIZE.......: 11.0 GiB VIDEO.CODEC........: HEVC Main 10@L5@High Dolby Vision, Version 1.0, dvhe.05.06, BL+RPU FRAMERATE..........: 24.000 fps VIDEO.BITRATE......: 14.7 Mb/s RESOLUTION.........: 3840 x 1608 ASPECT.RATIO.......: 2.40:1 Audio..............: E-AC-3 6 channels 768 kb/s Chinese Mandarin [DDP5.1 Atmos] Audio..............: AAC 2 channels 256 kb/s Chinese Mandarin [AAC2.0]

    制暴4k(2024年)
    ①网盘资源信息:
    剧情简介:某集团董事长成杰(包贝尔 饰)受“大师”指点,需与一名女子发生关系为自己转运;他将目标锁定为自己公司员工“单亲妈妈”韩梅,强暴伤害其致植物人,事后却在媒体面前谎称是对方勾引自己,并让怀孕的妻子配合演戏,成功扭转舆论。韩梅的姐妹女警邱一昭(蒋璐霞 饰)坚信成杰在说谎并开启调查,在取证过程中受到恶势力的重重阻碍,而成杰人面兽心的丑恶面目也逐渐浮出水面,为姐妹也为正义,即便步步身陷险境,她仍决意与对方死磕到底!
    6.9

    前天 16:00/4K(3840x2160)

    爱的亡灵4k

    DISC INFO: Disc Title: L‘EMPIRE DE LA PASSION 4K UHD Disc Label: Ai.no.Bôrei.1978.2160p.FRA.UHD.Blu-ray.SDR.HEVC.DTS-HD.MA.1.0-4ksj Disc Size: 98,363,288,053 bytes Protection: AACS2 Extras: Ultra HD BDInfo: 0.7.5.6 PLAYLIST REPORT: Name: 00004.MPLS Length: 1:45:20.939 (h:m:s.ms) Size: 77,274,631,872 bytes Total Bitrate: 97.80 Mbps VIDEO: Codec Bitrate Description ----- ------- ----------- MPEG-H HEVC Video 90853 kbps 2160p / 23.976 fps / 16:9 / Main 10 @ Level 5.1 @ High / 10 bits / BT.709 AUDIO: Codec Language Bitrate Description ----- -------- ------- ----------- DTS-HD Master Audio Japanese 1056 kbps 1.0 / 48 kHz / 1056 kbps / 24-bit (DTS Core: 1.0 / 48 kHz / 768 kbps / 24-bit) DTS-HD Master Audio French 1062 kbps 1.0 / 48 kHz / 1062 kbps / 24-bit (DTS Core: 1.0 / 48 kHz / 768 kbps / 24-bit) Dolby Digital Audio French 256 kbps 2.0 / 48 kHz / 256 kbps / DN -27dB SUBTITLES: Codec Language Bitrate Description ----- -------- ------- ----------- Presentation Graphics French 17.926 kbps Presentation Graphics French 24.729 kbps

    爱的亡灵4k(70年代)
    6.9
    ①网盘资源信息:
    剧情简介:乡下车夫仪三郎(田村高广 饰)的妻子阿石(吉行和子 饰)勤劳善良,仪三郎不在家时,村里终日游手好闲的浪荡子丰次(藤龙也 饰)屡次向她献殷勤,她都不为所动,但是,她终没抵挡住丰次年青强健的身体的诱惑,两人更为了长相厮守,于某个暴风雪的夜晚勒死了仪三郎,并把他的尸体投入枯井。丰次出于罪恶感,每天 会把落叶倒入枯井。   三年之后,村里人议论仪三郎的鬼魂出现,阿石也开始受到仪三郎鬼魂的骚扰,逐渐无法承受心理上的重压,而为了打消村里人的怀疑,丰次再次杀人。当丰次和阿石冒险进入枯井想将仪三郎的遗骨转移时,却与他的鬼魂不期而遇。
    7.0

    前天 20:00/4K(3840x2160)

    机器战警2 4k

    DISC INFO: Disc Title: Robocop.2.1990.2160p.UHD.Blu-ray.HEVC.DTS-HD.MA5.1-4ksj Disc Size: 87,386,684,590 bytes Protection: AACS2 Extras: Ultra HD BDInfo: 0.7.6.1 (compatible layout created by DVDFab 12.1.1.5) PLAYLIST REPORT: Name: 00002.MPLS Length: 1:56:48.375 (h:m:s.ms) Size: 86,413,547,520 bytes Total Bitrate: 98.64 Mbps (*) Indicates included stream hidden by this playlist. VIDEO: Codec Bitrate Description ----- ------- ----------- MPEG-H HEVC Video 76497 kbps 2160p / 24 fps / 16:9 / Main 10 @ Level 5.1 @ High / 4:2:0 / 10 bits / 1000nits / HDR10 / BT.2020 * MPEG-H HEVC Video 8543 kbps (10.05%) 1080p / 24 fps / 16:9 / Main 10 @ Level 5.1 @ High / 4:2:0 / 10 bits / 1000nits / Dolby Vision FEL / BT.2020 AUDIO: Codec Language Bitrate Description ----- -------- ------- ----------- DTS-HD Master Audio English 3985 kbps 5.1 / 48 kHz / 3985 kbps / 24-bit (DTS Core: 5.1 / 48 kHz / 1509 kbps / 24-bit) DTS-HD Master Audio English 2085 kbps 2.0 / 48 kHz / 2085 kbps / 24-bit (DTS Core: 2.0 / 48 kHz / 1509 kbps / 24-bit) DTS-HD Master Audio English 2035 kbps 2.0 / 48 kHz / 2035 kbps / 24-bit (DTS Core: 2.0 / 48 kHz / 1509 kbps / 24-bit) Dolby Digital Audio English 192 kbps 2.0 / 48 kHz / 192 kbps Dolby Digital Audio English 192 kbps 2.0 / 48 kHz / 192 kbps SUBTITLES: Codec Language Bitrate Description ----- -------- ------- ----------- Presentation Graphics English 28.557 kbps Presentation Graphics Chinese 21.769 kbps Presentation Graphics Chinese 22.532 kbps Presentation Graphics Chinese 32.201 kbps Presentation Graphics Chinese 32.522 kbps

    机器战警2 4k(90年代)
    7.0
    ①网盘资源信息:
    剧情简介:在这部续集中,生产机械战警的泛消费公司掌控着底特律城的治安,警察们因薪水迟迟不能到位而举行罢工。凯恩(Tom Noonan 饰)旗下的犯罪集团依靠制造风靡各地的毒品“纽克”大发横财,社会治安极度败坏,到处是暴力事件。机械警察墨菲(Peter Weller 饰)追查毒品,将凯恩的制毒工厂捣毁,由此被凯恩团伙埋伏,惨遭肢解。与此同时,泛消费公司趁市政府财务困难,凭合同欲将城市行政纳入公司范畴,泛消费的新机械战警开发计划屡屡失败,于是请到心理学家菲克斯参与设计,菲克斯改动墨菲的命令程序使其无法如常工作,从错误程序摆脱出来的墨菲带领一干热血干警横扫凯恩总部,但是菲克斯却将凯恩改造成为巨大的机械战警,墨菲与凯恩的再次战斗不可避免……
    5.4

    6 天前/4K(3840x2160)

    寒鸦4k

    Disc Title: Jackdaw - UHD Blu-ray™ Disc Label: Jackdaw.2023.2160p.GER.UHD.Blu-ray.HEVC.DTS-HD.MA 5.1-4ksj Disc Size: 47,626,664,791 bytes Protection: AACS2 Playlist: 00001.MPLS Size: 45,155,887,104 bytes Length: 1:37:04.985 Total Bitrate: 62.02 Mbps Video: MPEG-H HEVC Video / 55061 kbps / 2160p / 23.976 fps / 16:9 / Main 10 @ Level 5.1 @ High / 10 bits / BT.709 Audio: German / DTS-HD Master Audio / 5.1 / 48 kHz / 1913 kbps / 16-bit (DTS Core: 5.1 / 48 kHz / 1509 kbps / 16-bit) Audio: English / DTS-HD Master Audio / 5.1 / 48 kHz / 1901 kbps / 16-bit (DTS Core: 5.1 / 48 kHz / 1509 kbps / 16-bit) Subtitle: German / 20.789 kbps

    寒鸦4k(2024年)
    5.4
    ①网盘资源信息:
    剧情简介:讲述职业摩托手卷入犯罪事件,争分夺秒解救弟弟。


2015-2023 www.4ksj.com  4K世界 |网站地图
京ICP证160991号 京公网安备11010802015683号 Copyright ©2023 All Rights Reserved.
    *本站提供的所有电影资源均来自互联网,仅限交流使用,请在下载后的2小时内删除,所有版权皆属原公司所有,如果认为本站侵犯了您的版权,请告知,我们会立即删除。