注册/登陆
游客您好
第三方账号登陆
[闲聊] 珍珠港4K reescalado HDR版本,请大神指教
[复制链接]
2023-08-14 发布
  • 4K入门玩家
  • 20
  • 494
七毛钱你要不要 发表于 2023-8-14 12:20:49 |阅读模式 打印 上一主题 下一主题
新手小白,学着站里的教程,PC+LAV+madVR播放,有没有大神指教一下还有什么可以提升的?
image.png

精彩评论13

 楼主| 七毛钱你要不要 发表于 2023-8-14 12:49:16
就是剧情接受不了。哈哈哈
微信截图_20230814124817.png
回复 支持 反对

使用道具 举报

ls12395 发表于 2023-8-14 13:10:08
楼主的有国语配音吗?你这个多少G大小?4K分辨率?
回复 支持 反对

使用道具 举报

 楼主| 七毛钱你要不要 发表于 2023-8-14 14:33:39
ls12395 发表于 2023-8-14 13:10
楼主的有国语配音吗?你这个多少G大小?4K分辨率?

没有国配,总共68.3G,原盘是1080P的,这个后期制作成4K的
回复 支持 反对

使用道具 举报

 楼主| 七毛钱你要不要 发表于 2023-8-14 14:34:39
ls12395 发表于 2023-8-14 13:10
楼主的有国语配音吗?你这个多少G大小?4K分辨率?

General
Unique ID                      : 33977249011576640524056803357300800834 (0x198FC7B69856B8388E9C291BE6A6BD42)
Complete name                  : F:\电影\Pearl Harbor [4Kreescalado][2160p][HDR10][DTS 5.1-AC3 5.1 Castellano-AC3 5.1-Ingles+Subs][ES-EN]\Pearl Harbor 4Kreescalado2160.pctfenix.com.mkv
Format                         : Matroska
Format version                 : Version 4
File size                      : 68.4 GiB
Duration                       : 3 h 3 min
Overall bit rate               : 53.5 Mb/s
Frame rate                     : 23.976 FPS
Movie name                     : Pearl Harbor [pctfenix.com]
Encoded date                   : 2021-04-19 08:08:36 UTC
Writing application            : mkvmerge v51.0.0 ('I Wish') 64-bit
Writing library                : libebml v1.4.0 + libmatroska v1.6.2

Video
ID                             : 1
Format                         : HEVC
Format/Info                    : High Efficiency Video Coding
Format profile                 : Main 10@L5.2@High
HDR format                     : SMPTE ST 2086, HDR10 compatible
Codec ID                       : V_MPEGH/ISO/HEVC
Duration                       : 3 h 3 min
Bit rate                       : 50.6 Mb/s
Width                          : 3 840 pixels
Height                         : 2 160 pixels
Display aspect ratio           : 16:9
Frame rate mode                : Constant
Frame rate                     : 23.976 (24000/1001) FPS
Color space                    : YUV
Chroma subsampling             : 4:2:0
Bit depth                      : 10 bits
Bits/(Pixel*Frame)             : 0.255
Stream size                    : 64.8 GiB (95%)
Default                        : Yes
Forced                         : No
Color range                    : Limited
Color primaries                : BT.2020
Transfer characteristics       : PQ
Matrix coefficients            : BT.2020 non-constant
Mastering display color primar : Display P3
Mastering display luminance    : min: 0.0001 cd/m2, max: 1000 cd/m2
Maximum Content Light Level    : 1000
Maximum Frame-Average Light Le : 400

Audio #1
ID                             : 2
Format                         : AC-3
Format/Info                    : Audio Coding 3
Commercial name                : Dolby Digital
Codec ID                       : A_AC3
Duration                       : 3 h 3 min
Bit rate mode                  : Constant
Bit rate                       : 640 kb/s
Channel(s)                     : 6 channels
Channel layout                 : L R C LFE Ls Rs
Sampling rate                  : 48.0 kHz
Frame rate                     : 31.250 FPS (1536 SPF)
Compression mode               : Lossy
Stream size                    : 838 MiB (1%)
Language                       : Spanish
Service kind                   : Complete Main
Default                        : Yes
Forced                         : Yes

Audio #2
ID                             : 3
Format                         : DTS
Format/Info                    : Digital Theater Systems
Codec ID                       : A_DTS
Duration                       : 3 h 3 min
Bit rate mode                  : Constant
Bit rate                       : 1 509 kb/s
Channel(s)                     : 6 channels
Channel layout                 : C L R Ls Rs LFE
Sampling rate                  : 48.0 kHz
Frame rate                     : 93.750 FPS (512 SPF)
Bit depth                      : 16 bits
Compression mode               : Lossy
Stream size                    : 1.93 GiB (3%)
Language                       : Spanish
Default                        : No
Forced                         : No

Audio #3
ID                             : 4
Format                         : AC-3
Format/Info                    : Audio Coding 3
Commercial name                : Dolby Digital
Codec ID                       : A_AC3
Duration                       : 3 h 3 min
Bit rate mode                  : Constant
Bit rate                       : 640 kb/s
Channel(s)                     : 6 channels
Channel layout                 : L R C LFE Ls Rs
Sampling rate                  : 48.0 kHz
Frame rate                     : 31.250 FPS (1536 SPF)
Compression mode               : Lossy
Stream size                    : 838 MiB (1%)
Language                       : English
Service kind                   : Complete Main
Default                        : No
Forced                         : No

Text #1
ID                             : 5
Format                         : UTF-8
Codec ID                       : S_TEXT/UTF8
Codec ID/Info                  : UTF-8 Plain Text
Duration                       : 2 h 19 min
Bit rate                       : 2 b/s
Frame rate                     : 0.006 FPS
Count of elements              : 51
Stream size                    : 2.25 KiB (0%)
Title                          : Castellano Forzados (SRT)
Language                       : Spanish
Default                        : No
Forced                         : Yes

Text #2
ID                             : 6
Format                         : PGS
Muxing mode                    : zlib
Codec ID                       : S_HDMV/PGS
Codec ID/Info                  : Picture based subtitle format used on BDs/HD-DVDs
Duration                       : 2 h 19 min
Bit rate                       : 1 387 b/s
Frame rate                     : 0.012 FPS
Count of elements              : 101
Stream size                    : 1.39 MiB (0%)
Title                          : Castellano Forzados (PGS)
Language                       : Spanish
Default                        : No
Forced                         : No

Text #3
ID                             : 7
Format                         : UTF-8
Codec ID                       : S_TEXT/UTF8
Codec ID/Info                  : UTF-8 Plain Text
Duration                       : 2 h 50 min
Bit rate                       : 45 b/s
Frame rate                     : 0.148 FPS
Count of elements              : 1523
Stream size                    : 57.3 KiB (0%)
Title                          : Castellano Completos (STR)
Language                       : Spanish
Default                        : No
Forced                         : Yes

Text #4
ID                             : 8
Format                         : PGS
Muxing mode                    : zlib
Codec ID                       : S_HDMV/PGS
Codec ID/Info                  : Picture based subtitle format used on BDs/HD-DVDs
Duration                       : 2 h 50 min
Bit rate                       : 26.7 kb/s
Frame rate                     : 0.297 FPS
Count of elements              : 3046
Stream size                    : 32.6 MiB (0%)
Title                          : Castellano Completos (PGS)
Language                       : Spanish
Default                        : No
Forced                         : No

Text #5
ID                             : 9
Format                         : UTF-8
Codec ID                       : S_TEXT/UTF8
Codec ID/Info                  : UTF-8 Plain Text
Duration                       : 2 h 51 min
Bit rate                       : 54 b/s
Frame rate                     : 0.180 FPS
Count of elements              : 1850
Stream size                    : 68.6 KiB (0%)
Title                          : English Complet (SRT)
Language                       : English
Default                        : No
Forced                         : No

Text #6
ID                             : 10
Format                         : PGS
Muxing mode                    : zlib
Codec ID                       : S_HDMV/PGS
Codec ID/Info                  : Picture based subtitle format used on BDs/HD-DVDs
Duration                       : 2 h 51 min
Bit rate                       : 32.2 kb/s
Frame rate                     : 0.361 FPS
Count of elements              : 3699
Stream size                    : 39.4 MiB (0%)
Title                          : English Complet (PGS)
Language                       : English
Default                        : No
Forced                         : No

Text #7
ID                             : 11
Format                         : UTF-8
Codec ID                       : S_TEXT/UTF8
Codec ID/Info                  : UTF-8 Plain Text
Duration                       : 16 s 169 ms
Bit rate                       : 37 b/s
Frame rate                     : 0.062 FPS
Count of elements              : 1
Stream size                    : 76.0 Bytes (0%)
Language                       : Spanish
Default                        : Yes
Forced                         : Yes

回复 支持 反对

使用道具 举报

杂皮儿宝贝 发表于 2023-8-14 20:05:57
回复 支持 反对

使用道具 举报

fengjj 发表于 2023-8-16 19:03:57
很好的片子
回复 支持 反对

使用道具 举报

风化的庞贝 发表于 2023-8-16 20:05:41
原生4k还是ai算出来的?
回复 支持 反对

使用道具 举报

 楼主| 七毛钱你要不要 发表于 2023-8-18 13:30:54
风化的庞贝 发表于 2023-8-16 20:05
原生4k还是ai算出来的?

后期制作的,原盘1080P
回复 支持 反对

使用道具 举报

 楼主| 七毛钱你要不要 发表于 2023-8-18 13:31:27
杂皮儿宝贝 发表于 2023-8-14 20:05
麻烦楼主给个视频下载链接,谢谢

https://115.com/s/sw61nd63wb2?password=r378&#
珍珠港
访问码:r378
回复 支持 反对

使用道具 举报

2022woai 发表于 2023-8-22 08:33:47
楼主辛苦了
回复 支持 反对

使用道具 举报

dz3058 发表于 2023-8-22 12:22:35
好片~~~~~~~~~
回复 支持 反对

使用道具 举报

0746lj 发表于 2023-11-30 10:47:08
第一贴
回复 支持 反对

使用道具 举报

gdlmxyq 发表于 2024-3-5 23:27:35
太好啦&萬分感謝版主的無私發佈分享%
回复 支持 反对

使用道具 举报

您需要登录后才可以回帖 登录 | 立即注册

本版积分规则

推荐影视全站推荐影视下载
  • 6.1

    昨天 22:13/4K(3840x2160)

    砍人快乐4K

    Disc Title: Freaky Disc Label: 砍人快乐.Freaky.2020.Complete.UHD.Blu-ray.2160p.HEVC.DTS-HD MA 5.1-Hao4k Disc Size: 74,073,917,077 bytes Protection: AACS2 Extras: Ultra HD BDInfo: 0.7.5.8 ===== PLAYLIST REPORT: ===== Name: 00002.MPLS Length: 1:42:03.325 (h:m:s.ms) Size: 73,484,441,280 bytes Total Bitrate: 96.01 Mbps ===== VIDEO: ===== Codec Bitrate Description ----- ------- ----------- MPEG-H HEVC Video 84996 kbps 2160p / 23.976 fps / 16:9 / Main 10 @ Level 5.1 @ High / 10 bits / HDR10 / BT.2020 ===== AUDIO: ===== Codec Language Bitrate Description ----- -------- ------- ----------- DTS-HD Master Audio English 3846 kbps 5.1 / 48 kHz / 3846 kbps / 24-bit (DTS Core: 5.1 / 48 kHz / 1509 kbps / 24-bit) DTS-HD Master Audio English 2043 kbps 2.0 / 48 kHz / 2043 kbps / 24-bit (DTS Core: 2.0 / 48 kHz / 1509 kbps / 24-bit) Dolby Digital Audio English 192 kbps 2.0 / 48 kHz / 192 kbps / DN -24dB ===== SUBTITLES: ===== Codec Language Bitrate Description ----- -------- ------- ----------- Presentation Graphics English 39.702 kbps Presentation Graphics Chinese 72.660 kbps 简体特效 Presentation Graphics Chinese 62.009 kbps 繁体特效 Presentation Graphics Chinese 92.826 kbps 简英特效 Presentation Graphics Chinese 80.405 kbps 繁英特效 ===== FILES:===== Name Time In Length Size Total Bitrate ---- ------- ------ ---- ------------- 00001.M2TS 0:00:00.000 1:42:03.325 73,484,441,280 96,005

    砍人快乐4K(2020年)
    6.1
    ①网盘资源信息:
    剧情简介:在与一个精神错乱的连环杀手交换尸体后,一名高中女生发现,她只有不到24小时的时间才能得到永久性的改变。
    6.5

    6 天前/4K(3840x2160)

    功夫熊猫4 4k

    Video Codec info = HEVC Main 10@L5@High | V_MPEGH/ISO/HEVC Resolution = 3840x1602 Display AR = 2.397 | 2.40:1 Bitrate = 23.5 Mb/s Framerate = CFR 23.976 Color space = YUV Chroma subsampling = 4:2:0 Encoder = Audio Codec info = E-AC-3 | A_EAC3 Channels = 6 Bitrate = CBR 768 kb/s Samplerate = 48.0 kHz Language = English

    功夫熊猫4 4k(2024年)
    6.5
    ①网盘资源信息:
    剧情简介:神龙大侠阿宝(杰克·布莱克 Jack Black 配音)再度归来,要被师父(达斯汀·霍夫曼 Dustin Hoffman 配音)强行进阶修行。系列全新最强反派魅影妖后(维奥拉·戴维斯 Viola Davis 配音)登场,神秘莫测的她可以幻化成每一个阿宝的昔日宿敌。此次阿宝又结识了小真(奥卡菲娜 Awkwafina 配音)等新伙伴,并将一同开启这场冒险旅程。

    6 天前/4K(3840x2160)

    沉睡烈犬4k

    Video Codec info = HEVC Main 10@L5@High | V_MPEGH/ISO/HEVC Resolution = 3838x1608 Display AR = 2.387 | 2.40:1 Bitrate = 12.0 Mb/s Framerate = CFR 23.976 Color space = YUV Chroma subsampling = 4:2:0 Encoder = Audio Codec info = AC-3 | A_AC3 Channels = 6 Bitrate = CBR 384 kb/s Samplerate = 48.0 kHz Language = English

    沉睡烈犬4k(2024年)
    ①网盘资源信息:
    剧情简介:电影改编自E.O.奇罗维奇的小说《镜之书》。它的主人公是前凶杀案侦探罗伊·弗里曼,在尖端的老年痴呆症治疗后,他的任务是重新调查他过去的一个残酷的谋杀案——一名大学教授的可怕谋杀案。好奇和战斗,以恢复他的记忆,罗伊招募他的前合作伙伴,以帮助他恢复调查。然而这一次,当他们遇到一个神秘而有磁性的女人时,事情变得非常不同:当他发现了一个充满矛盾和秘密的错综复杂的网络时,Roy被迫面对一个可怕的现实,在一眨眼的时间里永远改变了他的世界。
    8.8

    7 天前/4K(3840x2160)

    洛城机密4K

    General............: L.A.Confidential.1997.2160p.HQ.WEB-DL.H265.AAC-4Ksj Duration...........: 02:16:52.796 (HH:MM:SS:FF) RELEASE.SIZE.......: 19.2 GiB VIDEO.CODEC........: HEVC Main 10@L5.1@Main FRAMERATE..........: 23.976 fps VIDEO.BITRATE......: 19.9 Mb/s RESOLUTION.........: 3840 x 1608 ASPECT.RATIO.......: 2.40:1 Audio..............: AAC 2 channels 258 kb/s

    洛城机密4K(90年代)
    8.8
    ①网盘资源信息:
    剧情简介:此片根据詹姆斯·艾罗瑞(James Ellroy)的小说改编,描写了1950年代,警界腐败、犯罪纵横的洛杉矶。   杰克·文森(凯文·斯派西 饰)是警界名人,常常出现在电视媒体中,与《嘘嘘报》的八卦记者狼狈为奸,靠制造和揭发明星的桃色新闻,赚取外快。艾德·艾斯力(盖·皮尔斯 饰 )子承父业进入警局,野心勃勃,做事严谨,因为出卖同事而升职,受到大家的排挤;巴德·怀特(罗素·克劳 饰) 铁面无私,但是个性冲动,容易遭人利用。   一桩疑似抢劫的餐厅命案将这三个人联系起来。艾德·艾斯力找到了三个黑人嫌疑犯,并被判死刑结案,还因此收到上级嘉奖,但是他却在进一步的调查中发现案子并没有那么简单,他说服了杰克·文森和他一起继续追查;巴德·怀特对餐厅命案一直心存怀疑,他找到的线索也显示,案子根本没有想象中那么简单。   三个人迅速被卷入一个色情、毒品、谋杀、背叛、贪污、阴谋交织...
    7.3

    7 天前/4K(3840x2160)

    惊天危机4K

    General............: White.House.Down.2013.2160p.HQ.WEB-DL.H265.DDP5.1-4ksj Duration...........: 02:11:32.904 (HH:MM:SS:FF) RELEASE.SIZE.......: 18.9 GiB VIDEO.CODEC........: HEVC Main 10@L6.1@Main FRAMERATE..........: 23.976 fps VIDEO.BITRATE......: 20.1 Mb/s RESOLUTION.........: 4096 x 1720 ASPECT.RATIO.......: 2.40:1 Audio..............: E-AC-3 6 channels 256 kb/s English [DDP5.1] Audio..............: AAC 2 channels 192 kb/s English [AAC2.0]

    惊天危机4K(2013年)
    7.3
    ①网盘资源信息:
    剧情简介:年轻的凯尔(查宁·塔图姆 Channing Tatum 饰)从阿富汗前线退伍后在国会安保部门工作,他的终极梦想是保护美国总统索亚(杰米·福克斯 Jamie Foxx 饰)。凯尔与离婚的妻子育有一个正在上小学的女儿艾米莉(乔伊·金 Joey King 饰),她因为父亲入伍的经历变成了一个政治迷,尤其对索亚总统和白宫极其崇拜。凯尔为了让女儿高兴承诺带她参加白宫内部一日游,顺便在当天去应征由卡罗(玛吉·吉伦哈尔 Maggie Gyllenhaal 饰)领导的特勤部门的工作。可是就在同一天,一伙身份不明的武装分子乔装潜入白宫并对索亚总统进行搜捕,一场腥风血雨蓄势待发。正在陪女儿参观的凯尔能否临危不惧解救总统?凯尔是否能同时保护女儿?而这场动机不明的暴力背后是否掩盖着不为人知的肮脏秘密?


2015-2023 www.4ksj.com  4K世界 |网站地图
京ICP证160991号 京公网安备11010802015683号 Copyright ©2023 All Rights Reserved.
    *本站提供的所有电影资源均来自互联网,仅限交流使用,请在下载后的2小时内删除,所有版权皆属原公司所有,如果认为本站侵犯了您的版权,请告知,我们会立即删除。