注册/登陆
游客您好
第三方账号登陆
最后生还者 第一季4K.The.Last.of.Us.S01.2160p.蓝光原盘资源下载
[复制链接]
2023-08-23 发布
  • 黄金会员
  • 0
  • 1409
青衫烟雨 发表于 2023-8-23 09:33:32 |阅读模式 打印 上一主题 下一主题

最后生还者 第一季4K
2022年(豆瓣:9.0)
  • 电影声道:7.1声道 
  • 电影语言:中文简体   特效字幕 
  • 画质标准 Dolby Vision HDR10 
  • 资源版本 4K UHD原盘    DIY网盘资源 
  • 帧数/FPS:23.976 Fps
    发布排行: 第1784部4K原盘
    导  演:克雷格·麦辛 / 尼尔·德拉柯曼 / 彼得·霍尔 / 杰里米·韦布 / 亚斯米拉·日巴尼奇 / 丽萨·约翰逊 / 阿里·阿巴西
    制片国家:美国 加拿大 
    电影分类:动作 科幻 剧情 
    分 辨 率:4K(3840x2160)
简介 该剧由HBO出品,改编自顽皮狗于2013年6月14日推出的PlayStation平台同名游戏。讲述了在现代文明被摧毁的二十年后,人类因现代传染病而面临绝种危机,幸存的人类为了生存自相残杀。中年男性走私犯乔尔(佩德罗·帕斯卡 饰)为了完成“火萤”组织首领玛琳(梅尔·丹德里奇 饰)的托付,带着14岁少女艾莉(贝拉·拉姆齐 饰)一同踏出由军队保护的疫情隔离区,穿越化为废墟丛林的大都会。面对病毒感染变种人类与其他幸存者集团威胁,展开了一场改变两人一生的深刻旅程。
  • 网盘①


    提取码①
    无链接, 或无权限
    网盘②
    https://115.com/s/sw61bon3ffd?password
    【杜比视界】【DIY 简繁双语特效+BDJ菜单修改新增按钮】【蓝光原盘BDMV 265.77 GB】

    访问码②
    中文字幕


    BT种子 / 磁力链下载
  • 电影信息INFO
    Disc1 E01

    DISC INFO:

    Disc Title: THE_LAST_OF_US_S1_D1
    Disc Size: 61,857,912,662 bytes
    Protection: AACS2
    Extras: Ultra HD, BD-Java
    BDInfo: 0.7.6.1 (compatible layout created by DVDFab 12.1.1.3)

    PLAYLIST REPORT:

    Name: 00801.MPLS
    Length: 1:20:49.678 (h:m:s.ms)
    Size: 35,972,370,432 bytes
    Total Bitrate: 59.34 Mbps

    (*) Indicates included stream hidden by this playlist.

    VIDEO:

    Codec Bitrate Description
    ----- ------- -----------
    MPEG-H HEVC Video 47695 kbps 2160p / 23.976 fps / 16:9 / Main 10 @ Level 5.1 @ High / 4:2:0 / 10 bits / 1000nits / HDR10 / BT.2020
    * MPEG-H HEVC Video 62 kbps (0.13%) 1080p / 23.976 fps / 16:9 / Main 10 @ Level 5.1 @ High / 4:2:0 / 10 bits / 1000nits / Dolby Vision MEL / BT.2020

    AUDIO:

    Codec Language Bitrate Description
    ----- -------- ------- -----------
    Dolby TrueHD/Atmos Audio English 3319 kbps 7.1+11 objects / 48 kHz / 2871 kbps / 16-bit (AC3 Core: 5.1 / 48 kHz / 448 kbps)
    Dolby Digital Audio French 640 kbps 5.1 / 48 kHz / 640 kbps
    Dolby Digital Audio German 640 kbps 5.1 / 48 kHz / 640 kbps
    Dolby Digital Audio Italian 640 kbps 5.1 / 48 kHz / 640 kbps
    Dolby Digital Audio Spanish 640 kbps 5.1 / 48 kHz / 640 kbps
    Dolby Digital Audio Spanish 192 kbps 2.0 / 48 kHz / 192 kbps / Dolby Surround
    Dolby Digital Audio Czech 192 kbps 2.0 / 48 kHz / 192 kbps
    * Dolby Digital Audio Japanese 640 kbps 5.1 / 48 kHz / 640 kbps

    SUBTITLES:

    Codec Language Bitrate Description
    ----- -------- ------- -----------
    Presentation Graphics English 32.007 kbps
    Presentation Graphics French 21.854 kbps
    Presentation Graphics German 32.262 kbps
    Presentation Graphics Italian 29.977 kbps
    Presentation Graphics Spanish 27.573 kbps
    Presentation Graphics Dutch 23.239 kbps
    Presentation Graphics Chinese 21.793 kbps 原盘繁体中文
    Presentation Graphics Korean 20.892 kbps
    Presentation Graphics Spanish 25.013 kbps
    Presentation Graphics Czech 21.991 kbps
    Presentation Graphics Danish 23.747 kbps
    Presentation Graphics Finnish 28.341 kbps
    Presentation Graphics Norwegian 23.978 kbps
    Presentation Graphics Swedish 23.076 kbps
    Presentation Graphics Chinese 112.774 kbps 简体特效
    Presentation Graphics Chinese 114.419 kbps 繁体特效
    Presentation Graphics Chinese 132.918 kbps 简英特效
    Presentation Graphics Chinese 134.569 kbps 繁英特效
    Presentation Graphics French 0.656 kbps
    Presentation Graphics German 0.452 kbps
    Presentation Graphics Italian 0.472 kbps
    Presentation Graphics Spanish 0.653 kbps
    Presentation Graphics Spanish 0.785 kbps
    Presentation Graphics Czech 0.109 kbps
    * Presentation Graphics Japanese 0.575 kbps
    * Presentation Graphics Japanese 17.659 kbps

    FILES:

    Name Time In Length Size Total Bitrate
    ---- ------- ------ ---- -------------
    00014.M2TS 0:00:00.000 1:20:49.678 35,972,370,432 59,339 kbps


    Disc2 E03

    DISC INFO:

    Disc Title: THE_LAST_OF_US_S1_D2
    Disc Size: 61,543,113,785 bytes
    Protection: AACS2
    Extras: Ultra HD, BD-Java
    BDInfo: 0.7.6.1 (compatible layout created by DVDFab 12.1.1.3)

    PLAYLIST REPORT:

    Name: 00801.MPLS
    Length: 1:15:40.953 (h:m:s.ms)
    Size: 37,096,980,480 bytes
    Total Bitrate: 65.36 Mbps

    (*) Indicates included stream hidden by this playlist.

    VIDEO:

    Codec Bitrate Description
    ----- ------- -----------
    MPEG-H HEVC Video 53646 kbps 2160p / 23.976 fps / 16:9 / Main 10 @ Level 5.1 @ High / 4:2:0 / 10 bits / 1000nits / HDR10 / BT.2020
    * MPEG-H HEVC Video 62 kbps (0.11%) 1080p / 23.976 fps / 16:9 / Main 10 @ Level 5.1 @ High / 4:2:0 / 10 bits / 1000nits / Dolby Vision MEL / BT.2020

    AUDIO:

    Codec Language Bitrate Description
    ----- -------- ------- -----------
    Dolby TrueHD/Atmos Audio English 3410 kbps 7.1+11 objects / 48 kHz / 2962 kbps / 16-bit (AC3 Core: 5.1 / 48 kHz / 448 kbps)
    Dolby Digital Audio French 640 kbps 5.1 / 48 kHz / 640 kbps
    Dolby Digital Audio German 640 kbps 5.1 / 48 kHz / 640 kbps
    Dolby Digital Audio Italian 640 kbps 5.1 / 48 kHz / 640 kbps
    Dolby Digital Audio Spanish 640 kbps 5.1 / 48 kHz / 640 kbps
    Dolby Digital Audio Spanish 640 kbps 5.1 / 48 kHz / 640 kbps
    Dolby Digital Audio Czech 192 kbps 2.0 / 48 kHz / 192 kbps / Dolby Surround
    * Dolby Digital Audio Japanese 192 kbps 2.0 / 48 kHz / 192 kbps

    SUBTITLES:

    Codec Language Bitrate Description
    ----- -------- ------- -----------
    Presentation Graphics English 20.695 kbps
    Presentation Graphics French 15.139 kbps
    Presentation Graphics German 22.08 kbps
    Presentation Graphics Italian 18.669 kbps
    Presentation Graphics Spanish 17.253 kbps
    Presentation Graphics Dutch 14.555 kbps
    Presentation Graphics Chinese 13.362 kbps 原盘繁体中文
    Presentation Graphics Korean 13.762 kbps
    Presentation Graphics Spanish 15.91 kbps
    Presentation Graphics Czech 13.316 kbps
    Presentation Graphics Danish 15.629 kbps
    Presentation Graphics Finnish 16.537 kbps
    Presentation Graphics Norwegian 15.696 kbps
    Presentation Graphics Swedish 15.058 kbps
    Presentation Graphics Chinese 91.037 kbps 简体特效
    Presentation Graphics Chinese 88.702 kbps 繁体特效
    Presentation Graphics Chinese 103.501 kbps 简英特效
    Presentation Graphics Chinese 101.168 kbps 繁英特效
    Presentation Graphics French 0.492 kbps
    Presentation Graphics German 0.696 kbps
    Presentation Graphics Italian 0.255 kbps
    Presentation Graphics Spanish 0.561 kbps
    Presentation Graphics Spanish 0.584 kbps
    Presentation Graphics Czech 0.566 kbps
    * Presentation Graphics Japanese 0.392 kbps
    * Presentation Graphics Japanese 12.299 kbps

    FILES:

    Name Time In Length Size Total Bitrate
    ---- ------- ------ ---- -------------
    00014.M2TS 0:00:00.000 1:15:40.953 37,096,980,480 65,355 kbps


    Disc3 E05

    DISC INFO:

    Disc Title: THE_LAST_OF_US_S1_D3
    Disc Size: 95,159,886,378 bytes
    Protection: AACS2
    Extras: Ultra HD, BD-Java
    BDInfo: 0.7.6.1 (compatible layout created by DVDFab 12.1.1.3)

    PLAYLIST REPORT:

    Name: 00801.MPLS
    Length: 0:59:06.751 (h:m:s.ms)
    Size: 31,578,329,088 bytes
    Total Bitrate: 71.23 Mbps

    (*) Indicates included stream hidden by this playlist.

    VIDEO:

    Codec Bitrate Description
    ----- ------- -----------
    MPEG-H HEVC Video 59275 kbps 2160p / 23.976 fps / 16:9 / Main 10 @ Level 5.1 @ High / 4:2:0 / 10 bits / 1000nits / HDR10 / BT.2020
    * MPEG-H HEVC Video 62 kbps (0.10%) 1080p / 23.976 fps / 16:9 / Main 10 @ Level 5.1 @ High / 4:2:0 / 10 bits / 1000nits / Dolby Vision MEL / BT.2020

    AUDIO:

    Codec Language Bitrate Description
    ----- -------- ------- -----------
    Dolby TrueHD/Atmos Audio English 3308 kbps 7.1+11 objects / 48 kHz / 2860 kbps / 16-bit (AC3 Core: 5.1 / 48 kHz / 448 kbps)
    Dolby Digital Audio French 640 kbps 5.1 / 48 kHz / 640 kbps
    Dolby Digital Audio German 640 kbps 5.1 / 48 kHz / 640 kbps
    Dolby Digital Audio Italian 640 kbps 5.1 / 48 kHz / 640 kbps
    Dolby Digital Audio Spanish 640 kbps 5.1 / 48 kHz / 640 kbps
    Dolby Digital Audio Spanish 640 kbps 5.1 / 48 kHz / 640 kbps
    Dolby Digital Audio Czech 192 kbps 2.0 / 48 kHz / 192 kbps / Dolby Surround
    * Dolby Digital Audio Japanese 192 kbps 2.0 / 48 kHz / 192 kbps

    SUBTITLES:

    Codec Language Bitrate Description
    ----- -------- ------- -----------
    Presentation Graphics English 23.08 kbps
    Presentation Graphics French 18.205 kbps
    Presentation Graphics German 25.675 kbps
    Presentation Graphics Italian 21.828 kbps
    Presentation Graphics Spanish 20.304 kbps
    Presentation Graphics Dutch 18.095 kbps
    Presentation Graphics Chinese 16.451 kbps 原盘繁体中文
    Presentation Graphics Korean 16.591 kbps
    Presentation Graphics Spanish 19.062 kbps
    Presentation Graphics Czech 15.819 kbps
    Presentation Graphics Danish 18.818 kbps
    Presentation Graphics Finnish 19.764 kbps
    Presentation Graphics Norwegian 18.935 kbps
    Presentation Graphics Swedish 17.1 kbps
    Presentation Graphics Chinese 86.026 kbps 简体特效
    Presentation Graphics Chinese 87.497 kbps 繁体特效
    Presentation Graphics Chinese 99.685 kbps 简英特效
    Presentation Graphics Chinese 101.158 kbps 繁英特效
    Presentation Graphics French 2.089 kbps
    Presentation Graphics German 1.736 kbps
    Presentation Graphics Italian 1.84 kbps
    Presentation Graphics Spanish 1.483 kbps
    Presentation Graphics Spanish 1.726 kbps
    Presentation Graphics Czech 1.845 kbps
    * Presentation Graphics Japanese 1.176 kbps
    * Presentation Graphics Japanese 15.359 kbps

    FILES:

    Name Time In Length Size Total Bitrate
    ---- ------- ------ ---- -------------
    00068.M2TS 0:00:00.000 0:59:06.751 31,578,329,088 71,227 kbps


    Disc4 E08

    DISC INFO:

    Disc Title: THE_LAST_OF_US_S1_D4
    Disc Size: 66,812,171,921 bytes
    Protection: AACS2
    Extras: Ultra HD, BD-Java
    BDInfo: 0.7.6.1 (compatible layout created by DVDFab 12.1.1.3)

    PLAYLIST REPORT:

    Name: 00801.MPLS
    Length: 0:50:46.793 (h:m:s.ms)
    Size: 27,031,695,360 bytes
    Total Bitrate: 70.98 Mbps

    (*) Indicates included stream hidden by this playlist.

    VIDEO:

    Codec Bitrate Description
    ----- ------- -----------
    MPEG-H HEVC Video 59209 kbps 2160p / 23.976 fps / 16:9 / Main 10 @ Level 5.1 @ High / 4:2:0 / 10 bits / 1000nits / HDR10 / BT.2020
    * MPEG-H HEVC Video 62 kbps (0.10%) 1080p / 23.976 fps / 16:9 / Main 10 @ Level 5.1 @ High / 4:2:0 / 10 bits / 1000nits / Dolby Vision MEL / BT.2020

    AUDIO:

    Codec Language Bitrate Description
    ----- -------- ------- -----------
    Dolby TrueHD/Atmos Audio English 3268 kbps 7.1+11 objects / 48 kHz / 2820 kbps / 16-bit (AC3 Core: 5.1 / 48 kHz / 448 kbps)
    Dolby Digital Audio French 640 kbps 5.1 / 48 kHz / 640 kbps
    Dolby Digital Audio German 640 kbps 5.1 / 48 kHz / 640 kbps
    Dolby Digital Audio Italian 640 kbps 5.1 / 48 kHz / 640 kbps
    Dolby Digital Audio Spanish 640 kbps 5.1 / 48 kHz / 640 kbps
    Dolby Digital Audio Spanish 640 kbps 5.1 / 48 kHz / 640 kbps
    Dolby Digital Audio Czech 192 kbps 2.0 / 48 kHz / 192 kbps / Dolby Surround
    * Dolby Digital Audio Japanese 192 kbps 2.0 / 48 kHz / 192 kbps

    SUBTITLES:

    Codec Language Bitrate Description
    ----- -------- ------- -----------
    Presentation Graphics English 20.433 kbps
    Presentation Graphics French 16.473 kbps
    Presentation Graphics German 22.168 kbps
    Presentation Graphics Italian 18.357 kbps
    Presentation Graphics Spanish 18.489 kbps
    Presentation Graphics Dutch 16.805 kbps
    Presentation Graphics Chinese 14.487 kbps 原盘繁体中文
    Presentation Graphics Korean 14.786 kbps
    Presentation Graphics Spanish 17.215 kbps
    Presentation Graphics Czech 14.187 kbps
    Presentation Graphics Danish 17.273 kbps
    Presentation Graphics Finnish 18.391 kbps
    Presentation Graphics Norwegian 17.493 kbps
    Presentation Graphics Swedish 16.311 kbps
    Presentation Graphics Chinese 70.938 kbps 简体特效
    Presentation Graphics Chinese 71.968 kbps 繁体特效
    Presentation Graphics Chinese 88.867 kbps 简英特效
    Presentation Graphics Chinese 89.89 kbps 繁英特效
    Presentation Graphics French 0.148 kbps
    Presentation Graphics German 0.099 kbps
    Presentation Graphics Italian 0.006 kbps
    Presentation Graphics Spanish 0.006 kbps
    Presentation Graphics Spanish 0.079 kbps
    Presentation Graphics Czech 0.102 kbps
    * Presentation Graphics Japanese 0.14 kbps
    * Presentation Graphics Japanese 13.67 kbps

    FILES:

    Name Time In Length Size Total Bitrate
    ---- ------- ------ ---- -------------
    00067.M2TS 0:00:00.000 0:50:46.793 27,031,695,360 70,977 kbps

最后生还者 第一季 The.Last.of.Us.S01.2160p.UHD.Blu-ray.HEVC.TrueHD 7.1
https://115.com/s/sw61boo3ffd?password
访问码:

115网盘下载4k世界网站资源教程

最后生还者 第一季4K The.Last.of.Us.S01.2160p.UHD.BluRay.Remux.HDR.DV.HEVC.Atmo【蓝光BD-REMUX 213.39 GB】
磁力链免K币下载:

magnet:?xt=urn:btih:5b46c0c523b3b6477f73d37f9d3353a4807b00d4&dn

精彩评论68

oily 发表于 2023-8-23 10:16:46
现在全都是diy原盘了?
回复 支持 1 反对 1

使用道具 举报

waterfox01 发表于 2023-8-23 11:41:45
回复 支持 4 反对 11

使用道具 举报

剧毒2019 发表于 2023-8-23 13:40:42
感谢楼主发布这么经典的好资源
回复 支持 反对

使用道具 举报

justranger 发表于 2023-8-23 13:47:12
感谢楼主发布
回复 支持 反对

使用道具 举报

tycowd 发表于 2023-8-23 15:47:50
回复 支持 反对

使用道具 举报

18176838804 发表于 2023-8-23 16:11:34
waterfox01 发表于 2023-8-23 11:41
好好一个游戏加电影,生生让他妈同性恋毁了

怎么个毁法 求科普
回复 支持 反对

使用道具 举报

13156396256 发表于 2023-8-23 16:32:34
感谢分享
回复 支持 反对

使用道具 举报

allenuxw 发表于 2023-8-23 17:27:27
好是好,文件太多装不下
回复 支持 反对

使用道具 举报

foxdoghunter 发表于 2023-8-23 18:26:46
回复 支持 反对

使用道具 举报

zifan520 发表于 2023-8-23 19:42:38
高清的片子就是好,要不然家里买的高档电视和显示器就废了
回复 支持 反对

使用道具 举报

ll4027 发表于 2023-8-23 20:57:52
玩了游戏之后追完具,追完局又刷了二周目,真的是神作。
回复 支持 1 反对 0

使用道具 举报

luenky 发表于 2023-8-24 08:28:47
题材好啊 。。。。
回复 支持 反对

使用道具 举报

baiguiun 发表于 2023-8-24 10:03:57
这个也太大了,要爆硬盘
回复 支持 反对

使用道具 举报

西西追不上卡卡 发表于 2023-8-24 10:42:48
还没玩过这款游戏,先看看剧
回复 支持 反对

使用道具 举报

udake 发表于 2023-8-24 11:53:47
115电视版怎么看杜比届
回复 支持 反对

使用道具 举报

ajie830510 发表于 2023-8-24 14:55:51

感谢分享
回复 支持 反对

使用道具 举报

您需要登录后才可以回帖 登录 | 立即注册

本版积分规则

推荐影视全站推荐影视下载
  • 7.0

    3 天前/4K(3840x2160)

    杀破狼·贪狼4k

    DISC INFO: Disc Title: Paradox.2017.2160p.UHD.Blu-ray.HEVC.TrueHD.5.1-4ksj Disc Size: 61,953,240,096 bytes Protection: AACS2 Extras: Ultra HD BDInfo: 0.7.5.9 (compatible layout created by DVDFab 12.0.5.1) PLAYLIST REPORT: Name: 00001.MPLS Length: 1:39:39.333 (h:m:s.ms) Size: 60,899,168,256 bytes Total Bitrate: 81.48 Mbps VIDEO: Codec Bitrate Description ----- ------- ----------- MPEG-H HEVC Video 68981 kbps 2160p / 24 fps / 16:9 / Main 10 @ Level 5.1 @ High / 4:2:0 / 10 bits / 10000nits / HDR10 / BT.2020 AUDIO: Codec Language Bitrate Description ----- -------- ------- ----------- Dolby TrueHD Audio Chinese 3372 kbps 5.1 / 96 kHz / 2732 kbps / 16-bit (AC3 Core: 5.1-EX / 48 kHz / 640 kbps) Dolby TrueHD Audio Chinese 3369 kbps 5.1 / 96 kHz / 2729 kbps / 16-bit (AC3 Core: 5.1-EX / 48 kHz / 640 kbps) SUBTITLES: Codec Language Bitrate Description ----- -------- ------- ----------- Presentation Graphics Chinese 14.63 kbps Presentation Graphics English 14.31 kbps Presentation Graphics Chinese 12.773 kbps Presentation Graphics Chinese 13 kbps

    杀破狼·贪狼4k(2017年)
    7.0
    ①网盘资源信息:
    剧情简介: 香港警察李忠志(古天乐 饰)得知女儿芝(陈汉娜 饰)于泰国旅游间莫名失踪,即亲赴泰国报警求助。负责案件的华人探员崔杰(吴樾 饰),应允让他一同调查,却想不到李忠志利用媒体呼吁市民提供线索。 一条意外拍下芝被捉走的片段上载至警方网站,却被神秘删除。崔杰即连同好友兼同袍Tak(托尼·贾 饰)同赴寻找片主,却遇神秘人马截足灭证,狭路相逢,展开追截并与之搏斗。李忠志与崔杰两人逐步调查,却发现案中有案,并开始意识凶手背后神秘势力非他们能对付……
    6.1

    4 天前/4K(3840x2160)

    砍人快乐4K

    Disc Title: Freaky Disc Label: 砍人快乐.Freaky.2020.Complete.UHD.Blu-ray.2160p.HEVC.DTS-HD MA 5.1-Hao4k Disc Size: 74,073,917,077 bytes Protection: AACS2 Extras: Ultra HD BDInfo: 0.7.5.8 ===== PLAYLIST REPORT: ===== Name: 00002.MPLS Length: 1:42:03.325 (h:m:s.ms) Size: 73,484,441,280 bytes Total Bitrate: 96.01 Mbps ===== VIDEO: ===== Codec Bitrate Description ----- ------- ----------- MPEG-H HEVC Video 84996 kbps 2160p / 23.976 fps / 16:9 / Main 10 @ Level 5.1 @ High / 10 bits / HDR10 / BT.2020 ===== AUDIO: ===== Codec Language Bitrate Description ----- -------- ------- ----------- DTS-HD Master Audio English 3846 kbps 5.1 / 48 kHz / 3846 kbps / 24-bit (DTS Core: 5.1 / 48 kHz / 1509 kbps / 24-bit) DTS-HD Master Audio English 2043 kbps 2.0 / 48 kHz / 2043 kbps / 24-bit (DTS Core: 2.0 / 48 kHz / 1509 kbps / 24-bit) Dolby Digital Audio English 192 kbps 2.0 / 48 kHz / 192 kbps / DN -24dB ===== SUBTITLES: ===== Codec Language Bitrate Description ----- -------- ------- ----------- Presentation Graphics English 39.702 kbps Presentation Graphics Chinese 72.660 kbps 简体特效 Presentation Graphics Chinese 62.009 kbps 繁体特效 Presentation Graphics Chinese 92.826 kbps 简英特效 Presentation Graphics Chinese 80.405 kbps 繁英特效 ===== FILES:===== Name Time In Length Size Total Bitrate ---- ------- ------ ---- ------------- 00001.M2TS 0:00:00.000 1:42:03.325 73,484,441,280 96,005

    砍人快乐4K(2020年)
    6.1
    ①网盘资源信息:
    剧情简介:在与一个精神错乱的连环杀手交换尸体后,一名高中女生发现,她只有不到24小时的时间才能得到永久性的改变。
    5.1

    昨天 21:26/4K(3840x2160)

    谍影追凶4k

    Disc Title: The Bricklayer Disc Label: The.Bricklayer.2023.MULTi.COMPLETE.UHD.BLURAY-4ksj.vip Disc Size: 77,346,409,831 bytes Protection: AACS2 Playlist: 00000.MPLS Size: 67,032,694,464 bytes Length: 1:49:58.592 Total Bitrate: 81.27 Mbps Video: MPEG-H HEVC Video / 73197 kbps / 2160p / 23.976 fps / 16:9 / Main 10 @ Level 5.1 @ High / 10 bits / HDR10 / BT.2020 * Video: MPEG-H HEVC Video / 102 kbps / 1080p / 23.976 fps / 16:9 / Main 10 @ Level 5.1 @ High / 10 bits / Dolby Vision / BT.2020 Audio: German / DTS-HD Master Audio / 5.1 / 48 kHz / 1989 kbps / 16-bit (DTS Core: 5.1 / 48 kHz / 1509 kbps / 16-bit) Audio: English / DTS-HD Master Audio / 5.1 / 48 kHz / 1986 kbps / 16-bit (DTS Core: 5.1 / 48 kHz / 1509 kbps / 16-bit) Subtitle: German / 28.384 kbps Subtitle: German / 30.512 kbps Subtitle: German / 0.119 kbps

    谍影追凶4k(2023年)
    5.1
    ①网盘资源信息:
    剧情简介:有人正在勒索中央情报局——通过暗杀外国记者,并栽赃CIA。 当世界开始联合起来反对美国时,中央情报局必须出动他们最聪明且叛逆的特工重返江湖,迫使他面对自己曲折的过去,同时揭开一个国际阴谋。
    7.9

    7 天前/4K(3840x2160)

    Motley.Crue:The.End

    Disc Title: Motley Crue - The End Live In Los Angeles Disc Label: Motley.Crue: The.End.2016.2160p.UHD.Blu-ray.HEVC.DTS-HD.MA.5.1-4ksj Disc Size: 91,600,432,502 bytes Protection: AACS2 Playlist: 00007.MPLS Size: 79,844,782,272 bytes Length: 1:47:58.472 Total Bitrate: 98.60 Mbps Video: MPEG-H HEVC Video / 86901 kbps / 2160p / 23.976 fps / 16:9 / Main 10 @ Level 5.1 @ High / 4:2:0 / 10 bits / Limited Range / BT.709 / BT.709 / BT.709 Audio: English / LPCM Audio / 2.0 / 48 kHz / 2304 kbps / 24-bit Audio: English / DTS-HD Master Audio / 5.1 / 48 kHz / 5020 kbps / 24-bit (DTS Core: 5.1 / 48 kHz / 768 kbps

    Motley.Crue:The.End(2016年)
    7.9
    ①网盘资源信息:
    剧情简介:On January 28, 2014, Mötley Crüe held a press conference at Beacher\'s Madhouse Theater in Hollywood, where they announced a final tour. The band became the first to sign a binding legal document known as a "cessation of touring" contract, preventing them from touring under the name Mötley Crüe past the year 2015.

    6 天前/4K(3840x2160)

    大“反”派4k

    General............: Super.Villain.2024.2160p.HQ.WEB-DL.H265.DTS5.1-4ksj Duration...........: 01:38:05.216 (HH:MM:SS:FF) RELEASE.SIZE.......: 14.6 GiB VIDEO.CODEC........: HEVC Main 10@L5.1@Main FRAMERATE..........: 24.000 fps VIDEO.BITRATE......: 19.8 Mb/s RESOLUTION.........: 3840 x 2080 ASPECT.RATIO.......: 1.85:1 Audio..............: DTS 6 channels 768 kb/s Chinese Mandarin [DTS5.1] Audio..............: E-AC-3 6 channels 448 kb/s Chinese Mandarin [DDP5.1] Audio..............: AAC 2 channels 256 kb/s Chinese Mandarin [AAC2.0]

    ①网盘资源信息:
    剧情简介:讲述小演员毕超(包贝尔 饰)因意外失忆误以为自己是个十恶不赦的大反派,还把与自己对戏的女演员冰冰(克拉拉 饰)也错认成了现实中的妻子(李嘉琦 饰),为了让妻子过上更好的生活,毕超下定决心完成反派“绑架大富豪”的使命,在这一过程中意外与老大(周大勇 饰)、老二(马旭东 饰)、老三(喳喳 饰)三名歹徒结下梁子,自此踏上了惨遭碾压的倒霉爆笑之旅。


2015-2023 www.4ksj.com  4K世界 |网站地图
京ICP证160991号 京公网安备11010802015683号 Copyright ©2023 All Rights Reserved.
    *本站提供的所有电影资源均来自互联网,仅限交流使用,请在下载后的2小时内删除,所有版权皆属原公司所有,如果认为本站侵犯了您的版权,请告知,我们会立即删除。