注册/登陆
游客您好
第三方账号登陆
假面骑士4K.1971 BD-BOX1 TV 01-26 Fin 2160p.蓝光原盘资源下载
[复制链接]
2023-09-10 发布
  • 4K大师玩家
  • 20
  • 3126
静待花开 发表于 2023-9-10 20:00:00 |阅读模式 打印 上一主题 下一主题

假面骑士4K
70年代(豆瓣:8.7)
  • 电影声道:5.1声道 2.0声道 
  • 电影语言:英文字幕   
  • 画质标准 其他 
  • 资源版本 4K UHD原盘   
  • 帧数/FPS:23.976 Fps
    发布排行: 第1810部4K原盘
    导  演:竹本弘一 / 石ノ森章太郎
    制片国家:日本 
    电影分类:动作 科幻 冒险 恐怖 剧情 
    分 辨 率:4K(3840x2160)
简介 全98话(剧场作品2部)
  本作骑士:假面骑士1号,假面骑士2号
  此作是假面骑士的头号作品,由石森章太郎老师原著.造型方面是深得人心.非常经典.此片当时在日本播放以后受到大众好评!更是小朋友们心中的英雄偶像!当时更出现很多诸如玩具,食品,用品等相关的周边产品!
  本来是无2号的:
  在本片拍摄的过程中,饰演假面骑士1号演本乡猛的演员藤冈弘因为受伤而导致不能继续拍下去,所以制作小组便安排假面骑士2号登场!
  故事简要:
  原名本乡猛,是个头脑精明,运动全能的青年科学家。他被秘密组织『休卡党』捉去改造,在接受脑手术时,得恩师绿川博士的拯救,离开基地,成为对抗“修卡党”的假面骑士。假面骑士的造型是以蝗虫为蓝本,有惊人的跳跃力和踢腿力。
  本乡 猛「藤冈弘」饰演
  能变身成为假面骑士1号,城北大学学生,IQ高达600及过人体能的天才青年。
  一日被修卡组织捉走并将其进行改造,庆幸的是在接受脑手术时,其恩师绿川博士将其解救出来。
  自此成为对抗邪恶势力和保护人类和平的正义战士。
  一文字 隼人「佐佐木刚」饰演
  能变身成为假面骑士2号,拥有柔道五段、空手道六段的格斗技能,原本是一名摄影师。
  修卡组织计划将其改造成与一号同型的改造人,但被本乡猛知道后,于头脑被改造前将其救出,成为2号骑士,与1号并肩作战。
  • 网盘①


    提取码①
    无链接, 或无权限
    网盘②
    https://115.com/s/swzlafh3ffd
    4K蓝光原盘[无中字][102.41G]

    访问码②
    中文字幕


    BT种子 / 磁力链下载
  • 电影信息INFO
    DISC INFO:

    PLAYLIST REPORT:

    Name: 00001.MPLS
    Length: 2:10:40.582 (h:m:s.ms)
    Size: 0 bytes
    Total Bitrate: 0.00 Mbps

    VIDEO:

    Codec Bitrate Description
    ----- ------- -----------
    MPEG-4 AVC Video 0 kbps 1080p / 23.976 fps / 16:9 / High Profile 4.1

    AUDIO:

    Codec Language Bitrate Description
    ----- -------- ------- -----------
    LPCM Audio Japanese 6912 kbps 5.1 / 48 kHz / 6912 kbps / 24-bit
    LPCM Audio Japanese 2304 kbps 2.0 / 48 kHz / 2304 kbps / 24-bit
    LPCM Audio Japanese 2304 kbps 2.0 / 48 kHz / 2304 kbps / 24-bit

    SUBTITLES:

    Codec Language Bitrate Description
    ----- -------- ------- -----------
    Presentation Graphics Japanese 0.000 kbps

    FILES:

    Name Time In Length Size Total Bitrate
    ---- ------- ------ ---- -------------
    00001.M2TS 0:00:00.000 0:00:33.033 0 0
    00002.M2TS 0:00:33.033 2:10:07.549 0 0

    CHAPTERS:

    Number Time In Length Avg Video Rate Max 1-Sec Rate Max 1-Sec Time Max 5-Sec Rate Max 5-Sec Time Max 10Sec Rate Max 10Sec Time Avg Frame Size Max Frame Size Max Frame Time

蒙面超人 / 假面超人 / 幪面超人1号 / Kamen Raida tai Shokka/初代假面骑士4K.Kamen Rider 1971 BD-BOX1 TV 01-26 Fin 2160p&1080p AVC LPCM-4k蓝光原盘下载


首发资源,挂机下载

精彩评论21

tck008 发表于 2023-9-10 20:36:12
當年伏在电视机等待節目!
回复 支持 反对

使用道具 举报

re3ceiver 发表于 2023-9-10 21:33:12
回复 支持 反对

使用道具 举报

wsmkm 发表于 2023-9-10 22:17:18
女朋友,能帮你的电脑
回复 支持 反对

使用道具 举报

水沟MOSS 发表于 2023-9-11 00:40:00
红领巾是第1代蒙面超人!!!!?这个有4K版就厉害咯!!!!!!!
回复 支持 反对

使用道具 举报

哈个屁哈 发表于 2023-9-11 07:48:46
天哪这个我看的还是漫画书呢,有一段用加特林的后坐力来推进摩托艇的情景我现在还记得。
回复 支持 反对

使用道具 举报

哈个屁哈 发表于 2023-9-11 07:49:39
allenuxw 发表于 2023-9-10 22:21
凡事小日子的再好看都不看

能不能有点文化自信。
回复 支持 1 反对 0

使用道具 举报

jojo0980 发表于 2023-9-11 08:43:25
太大了,,,
回复 支持 反对

使用道具 举报

无敌打狗棒 发表于 2023-9-11 09:23:16
回复 支持 反对

使用道具 举报

7旭日东升7 发表于 2023-9-11 09:46:51
谢谢分享
回复 支持 反对

使用道具 举报

Alestoler002 发表于 2023-9-11 09:56:50
allenuxw 发表于 2023-9-10 22:21
凡事小日子的再好看都不看

你有点极端了
回复 支持 反对

使用道具 举报

团支部书记 发表于 2023-9-11 10:20:52
连续剧啊,这么大!
回复 支持 反对

使用道具 举报

qweasdzxc321 发表于 2023-9-11 12:06:00
天呐居然这个都有,厉害
回复 支持 反对

使用道具 举报

137699809 发表于 2023-9-12 00:41:48
很棒的哦
回复 支持 反对

使用道具 举报

luffy1985 发表于 2023-9-13 11:42:29
这个赞啊,谢谢分享!
回复 支持 反对

使用道具 举报

Martinwangreal 发表于 2023-9-14 08:39:14


谢谢分享
回复 支持 反对

使用道具 举报

您需要登录后才可以回帖 登录 | 立即注册

本版积分规则

推荐影视全站推荐影视下载
  • 7.0

    昨天 14:00/4K(3840x2160)

    杀破狼·贪狼4k

    DISC INFO: Disc Title: Paradox.2017.2160p.UHD.Blu-ray.HEVC.TrueHD.5.1-4ksj Disc Size: 61,953,240,096 bytes Protection: AACS2 Extras: Ultra HD BDInfo: 0.7.5.9 (compatible layout created by DVDFab 12.0.5.1) PLAYLIST REPORT: Name: 00001.MPLS Length: 1:39:39.333 (h:m:s.ms) Size: 60,899,168,256 bytes Total Bitrate: 81.48 Mbps VIDEO: Codec Bitrate Description ----- ------- ----------- MPEG-H HEVC Video 68981 kbps 2160p / 24 fps / 16:9 / Main 10 @ Level 5.1 @ High / 4:2:0 / 10 bits / 10000nits / HDR10 / BT.2020 AUDIO: Codec Language Bitrate Description ----- -------- ------- ----------- Dolby TrueHD Audio Chinese 3372 kbps 5.1 / 96 kHz / 2732 kbps / 16-bit (AC3 Core: 5.1-EX / 48 kHz / 640 kbps) Dolby TrueHD Audio Chinese 3369 kbps 5.1 / 96 kHz / 2729 kbps / 16-bit (AC3 Core: 5.1-EX / 48 kHz / 640 kbps) SUBTITLES: Codec Language Bitrate Description ----- -------- ------- ----------- Presentation Graphics Chinese 14.63 kbps Presentation Graphics English 14.31 kbps Presentation Graphics Chinese 12.773 kbps Presentation Graphics Chinese 13 kbps

    杀破狼·贪狼4k(2017年)
    7.0
    ①网盘资源信息:
    剧情简介: 香港警察李忠志(古天乐 饰)得知女儿芝(陈汉娜 饰)于泰国旅游间莫名失踪,即亲赴泰国报警求助。负责案件的华人探员崔杰(吴樾 饰),应允让他一同调查,却想不到李忠志利用媒体呼吁市民提供线索。 一条意外拍下芝被捉走的片段上载至警方网站,却被神秘删除。崔杰即连同好友兼同袍Tak(托尼·贾 饰)同赴寻找片主,却遇神秘人马截足灭证,狭路相逢,展开追截并与之搏斗。李忠志与崔杰两人逐步调查,却发现案中有案,并开始意识凶手背后神秘势力非他们能对付……
    6.1

    前天 22:13/4K(3840x2160)

    砍人快乐4K

    Disc Title: Freaky Disc Label: 砍人快乐.Freaky.2020.Complete.UHD.Blu-ray.2160p.HEVC.DTS-HD MA 5.1-Hao4k Disc Size: 74,073,917,077 bytes Protection: AACS2 Extras: Ultra HD BDInfo: 0.7.5.8 ===== PLAYLIST REPORT: ===== Name: 00002.MPLS Length: 1:42:03.325 (h:m:s.ms) Size: 73,484,441,280 bytes Total Bitrate: 96.01 Mbps ===== VIDEO: ===== Codec Bitrate Description ----- ------- ----------- MPEG-H HEVC Video 84996 kbps 2160p / 23.976 fps / 16:9 / Main 10 @ Level 5.1 @ High / 10 bits / HDR10 / BT.2020 ===== AUDIO: ===== Codec Language Bitrate Description ----- -------- ------- ----------- DTS-HD Master Audio English 3846 kbps 5.1 / 48 kHz / 3846 kbps / 24-bit (DTS Core: 5.1 / 48 kHz / 1509 kbps / 24-bit) DTS-HD Master Audio English 2043 kbps 2.0 / 48 kHz / 2043 kbps / 24-bit (DTS Core: 2.0 / 48 kHz / 1509 kbps / 24-bit) Dolby Digital Audio English 192 kbps 2.0 / 48 kHz / 192 kbps / DN -24dB ===== SUBTITLES: ===== Codec Language Bitrate Description ----- -------- ------- ----------- Presentation Graphics English 39.702 kbps Presentation Graphics Chinese 72.660 kbps 简体特效 Presentation Graphics Chinese 62.009 kbps 繁体特效 Presentation Graphics Chinese 92.826 kbps 简英特效 Presentation Graphics Chinese 80.405 kbps 繁英特效 ===== FILES:===== Name Time In Length Size Total Bitrate ---- ------- ------ ---- ------------- 00001.M2TS 0:00:00.000 1:42:03.325 73,484,441,280 96,005

    砍人快乐4K(2020年)
    6.1
    ①网盘资源信息:
    剧情简介:在与一个精神错乱的连环杀手交换尸体后,一名高中女生发现,她只有不到24小时的时间才能得到永久性的改变。
    6.5

    7 天前/4K(3840x2160)

    功夫熊猫4 4k

    Video Codec info = HEVC Main 10@L5@High | V_MPEGH/ISO/HEVC Resolution = 3840x1602 Display AR = 2.397 | 2.40:1 Bitrate = 23.5 Mb/s Framerate = CFR 23.976 Color space = YUV Chroma subsampling = 4:2:0 Encoder = Audio Codec info = E-AC-3 | A_EAC3 Channels = 6 Bitrate = CBR 768 kb/s Samplerate = 48.0 kHz Language = English

    功夫熊猫4 4k(2024年)
    6.5
    ①网盘资源信息:
    剧情简介:神龙大侠阿宝(杰克·布莱克 Jack Black 配音)再度归来,要被师父(达斯汀·霍夫曼 Dustin Hoffman 配音)强行进阶修行。系列全新最强反派魅影妖后(维奥拉·戴维斯 Viola Davis 配音)登场,神秘莫测的她可以幻化成每一个阿宝的昔日宿敌。此次阿宝又结识了小真(奥卡菲娜 Awkwafina 配音)等新伙伴,并将一同开启这场冒险旅程。

    7 天前/4K(3840x2160)

    沉睡烈犬4k

    Video Codec info = HEVC Main 10@L5@High | V_MPEGH/ISO/HEVC Resolution = 3838x1608 Display AR = 2.387 | 2.40:1 Bitrate = 12.0 Mb/s Framerate = CFR 23.976 Color space = YUV Chroma subsampling = 4:2:0 Encoder = Audio Codec info = AC-3 | A_AC3 Channels = 6 Bitrate = CBR 384 kb/s Samplerate = 48.0 kHz Language = English

    沉睡烈犬4k(2024年)
    ①网盘资源信息:
    剧情简介:电影改编自E.O.奇罗维奇的小说《镜之书》。它的主人公是前凶杀案侦探罗伊·弗里曼,在尖端的老年痴呆症治疗后,他的任务是重新调查他过去的一个残酷的谋杀案——一名大学教授的可怕谋杀案。好奇和战斗,以恢复他的记忆,罗伊招募他的前合作伙伴,以帮助他恢复调查。然而这一次,当他们遇到一个神秘而有磁性的女人时,事情变得非常不同:当他发现了一个充满矛盾和秘密的错综复杂的网络时,Roy被迫面对一个可怕的现实,在一眨眼的时间里永远改变了他的世界。
    7.9

    5 天前/4K(3840x2160)

    Motley.Crue:The.End

    Disc Title: Motley Crue - The End Live In Los Angeles Disc Label: Motley.Crue: The.End.2016.2160p.UHD.Blu-ray.HEVC.DTS-HD.MA.5.1-4ksj Disc Size: 91,600,432,502 bytes Protection: AACS2 Playlist: 00007.MPLS Size: 79,844,782,272 bytes Length: 1:47:58.472 Total Bitrate: 98.60 Mbps Video: MPEG-H HEVC Video / 86901 kbps / 2160p / 23.976 fps / 16:9 / Main 10 @ Level 5.1 @ High / 4:2:0 / 10 bits / Limited Range / BT.709 / BT.709 / BT.709 Audio: English / LPCM Audio / 2.0 / 48 kHz / 2304 kbps / 24-bit Audio: English / DTS-HD Master Audio / 5.1 / 48 kHz / 5020 kbps / 24-bit (DTS Core: 5.1 / 48 kHz / 768 kbps

    Motley.Crue:The.End(2016年)
    7.9
    ①网盘资源信息:
    剧情简介:On January 28, 2014, Mötley Crüe held a press conference at Beacher\'s Madhouse Theater in Hollywood, where they announced a final tour. The band became the first to sign a binding legal document known as a "cessation of touring" contract, preventing them from touring under the name Mötley Crüe past the year 2015.


2015-2023 www.4ksj.com  4K世界 |网站地图
京ICP证160991号 京公网安备11010802015683号 Copyright ©2023 All Rights Reserved.
    *本站提供的所有电影资源均来自互联网,仅限交流使用,请在下载后的2小时内删除,所有版权皆属原公司所有,如果认为本站侵犯了您的版权,请告知,我们会立即删除。