注册/登陆
游客您好
第三方账号登陆
钢琴家4k.The.Pianist.2002.2160p.蓝光原盘电影下载
[复制链接]
2023-09-26 发布
  • 4K大师玩家
  • 20
  • 2837
静待花开 发表于 2023-9-26 09:00:01 |阅读模式 打印 上一主题 下一主题

钢琴家4k
00年代(豆瓣:9.3)
  • 电影声道:2.0声道 
  • 电影语言:英文字幕   
  • 画质标准 HDR 
  • 资源版本 4K UHD原盘    国语音轨    DIY网盘资源 
  • 帧数/FPS:23.976 Fps
    发布排行: 第1842部4K原盘
    导  演:罗曼·波兰斯基
    制片国家:法国 英国 德国 其他 
    电影分类:战争 剧情 传记 音乐 
    分 辨 率:4K(3840x2160)
简介史标曼(艾德里安•布洛迪 Adrien Brody 饰)是波兰一家电台的钢琴师。二战即将爆发之时,他们全家被迫被赶进华沙的犹太区。在战争的颠沛流离中,家人和亲戚最终被纳粹杀害,而史标曼本人也受尽种种羞辱和折磨,他侥幸得到一位朋友的帮助,暂时有了藏身之处。战争愈加猛烈,朋友不得不抛下他回老家寻得安全的住所养育儿女。此时史标曼恶病缠身,却还要在搜捕中逃亡。在废墟的阁楼上他遇见了一名德国军官,在军官的要求下他弹奏了钢琴曲。美妙的琴声令德国军官萌发了恻隐之心,他暗暗帮助史标曼直到苏军对波兰的解放到来…… 影片根据波兰钢琴家瓦拉迪斯罗•斯皮曼(Wladyslaw Szpilman)的自传体小说《死亡城市》改编。
  • 网盘①


    提取码①
    无链接, 或无权限
    网盘②
    https://115.com/s/swzz7oi3ffd
    4K蓝光原盘[德版原盘 DIY 国语音轨 简体简英特效字幕 菜单修改 保留Dolby Vision[83.19G]

    访问码②
    中文字幕


    BT种子 / 磁力链下载
  • 电影信息INFO
    Video
    ID : 1
    Format : HEVC
    Format/Info : High Efficiency Video Coding
    Format profile : Main 10@L5.1@High
    HDR format : Dolby Vision, Version 1.0, dvhe.07.06, BL+EL+RPU, Blu-ray compatible / SMPTE ST 2086, HDR10 compatible
    Codec ID : V_MPEGH/ISO/HEVC
    Duration : 2 h 29 min
    Bit rate : 60.0 Mb/s
    Width : 3 840 pixels
    Height : 2 160 pixels
    Display aspect ratio : 16:9
    Frame rate mode : Constant
    Frame rate : 23.976 (24000/1001) FPS
    Color space : YUV
    Chroma subsampling : 4:2:0 (Type 2)
    Bit depth : 10 bits
    Bits/(Pixel*Frame) : 0.302
    Stream size : 62.6 GiB (95%)
    Default : Yes
    Forced : No
    Color range : Limited
    Color primaries : BT.2020
    Transfer characteristics : PQ
    Matrix coefficients : BT.2020 non-constant
    Mastering display color primaries : Display P3
    Mastering display luminance : min: 0.0001 cd/m2, max: 1000 cd/m2
    Maximum Content Light Level : 797 cd/m2
    Maximum Frame-Average Light Level : 114 cd/m2
    Source : Studio Canal UHD Blu-ray (2023)

    Audio
    ID : 2
    Format : DTS XLL
    Format/Info : Digital Theater Systems
    Commercial name : DTS-HD Master Audio
    Codec ID : A_DTS
    Duration : 2 h 29 min
    Bit rate mode : Variable
    Bit rate : 2 738 kb/s
    Channel(s) : 6 channels
    Channel layout : C L R Ls Rs LFE
    Sampling rate : 48.0 kHz
    Frame rate : 93.750 FPS (512 SPF)
    Bit depth : 24 bits
    Compression mode : Lossless
    Stream size : 2.85 GiB (4%)
    Language : English
    Default : Yes
    Forced : No
    Source : Shout Factory USA Blu-ray (2021)

    Text #1
    ID : 3
    Format : UTF-8
    Codec ID : S_TEXT/UTF8
    Codec ID/Info : UTF-8 Plain Text
    Duration : 2 h 9 min
    Bit rate : 1 b/s
    Frame rate : 0.011 FPS
    Count of elements : 85
    Stream size : 1.69 KiB (0%)
    Title : Forced
    Language : English (US)
    Default : No
    Forced : Yes
    Source : Studio Canal UHD Blu-ray (2023)

    Text #2
    ID : 4
    Format : UTF-8
    Codec ID : S_TEXT/UTF8
    Codec ID/Info : UTF-8 Plain Text
    Duration : 2 h 18 min
    Bit rate : 33 b/s
    Frame rate : 0.110 FPS
    Count of elements : 914
    Stream size : 34.2 KiB (0%)
    Title : Regular
    Language : English (US)
    Default : No
    Forced : No
    Source : Netflix WEB-DL

    Text #3
    ID : 5
    Format : UTF-8
    Codec ID : S_TEXT/UTF8
    Codec ID/Info : UTF-8 Plain Text
    Duration : 2 h 28 min
    Bit rate : 43 b/s
    Frame rate : 0.147 FPS
    Count of elements : 1312
    Stream size : 47.6 KiB (0%)
    Title : SDH
    Language : English (US)
    Default : No
    Forced : No
    Source : Netflix WEB-DL

    Text #4
    ID : 6
    Format : PGS
    Codec ID : S_HDMV/PGS
    Codec ID/Info : Picture based subtitle format used on BDs/HD-DVDs
    Duration : 2 h 9 min
    Bit rate : 1 154 b/s
    Frame rate : 0.022 FPS
    Count of elements : 170
    Stream size : 1.07 MiB (0%)
    Title : Forced / PGS
    Language : English (US)
    Default : No
    Forced : No
    Source : Studio Canal UHD Blu-ray (2023)

    Text #5
    ID : 7
    Format : PGS
    Codec ID : S_HDMV/PGS
    Codec ID/Info : Picture based subtitle format used on BDs/HD-DVDs
    Duration : 2 h 28 min
    Bit rate : 27.2 kb/s
    Frame rate : 0.294 FPS
    Count of elements : 2620
    Stream size : 28.8 MiB (0%)
    Title : SDH / PGS
    Language : English (US)
    Default : No
    Forced : No
    Source : Studio Canal UHD Blu-ray (2023)

    Text #6
    ID : 8
    Format : UTF-8
    Codec ID : S_TEXT/UTF8
    Codec ID/Info : UTF-8 Plain Text
    Duration : 2 h 28 min
    Bit rate : 42 b/s
    Frame rate : 0.115 FPS
    Count of elements : 1025
    Stream size : 46.3 KiB (0%)
    Language : Arabic
    Default : No
    Forced : No
    Source : Netflix WEB-DL

    Text #7
    ID : 9
    Format : UTF-8
    Codec ID : S_TEXT/UTF8
    Codec ID/Info : UTF-8 Plain Text
    Duration : 2 h 28 min
    Bit rate : 28 b/s
    Frame rate : 0.117 FPS
    Count of elements : 1039
    Stream size : 31.3 KiB (0%)
    Language : Czech
    Default : No
    Forced : No
    Source : Netflix WEB-DL

    Text #8
    ID : 10
    Format : PGS
    Codec ID : S_HDMV/PGS
    Codec ID/Info : Picture based subtitle format used on BDs/HD-DVDs
    Duration : 2 h 22 min
    Bit rate : 18.1 kb/s
    Frame rate : 0.227 FPS
    Count of elements : 1936
    Stream size : 18.4 MiB (0%)
    Language : Danish
    Default : No
    Forced : No
    Source : Universal Studios ITA Blu-ray (2010)

    Text #9
    ID : 11
    Format : PGS
    Codec ID : S_HDMV/PGS
    Codec ID/Info : Picture based subtitle format used on BDs/HD-DVDs
    Duration : 2 h 22 min
    Bit rate : 21.5 kb/s
    Frame rate : 0.209 FPS
    Count of elements : 1794
    Stream size : 22.0 MiB (0%)
    Language : German
    Default : No
    Forced : No
    Source : Studio Canal UHD Blu-ray (2023)

    Text #10
    ID : 12
    Format : UTF-8
    Codec ID : S_TEXT/UTF8
    Codec ID/Info : UTF-8 Plain Text
    Duration : 2 h 28 min
    Bit rate : 49 b/s
    Frame rate : 0.115 FPS
    Count of elements : 1021
    Stream size : 54.1 KiB (0%)
    Language : Greek
    Default : No
    Forced : No
    Source : Netflix WEB-DL

    Text #11
    ID : 13
    Format : UTF-8
    Codec ID : S_TEXT/UTF8
    Codec ID/Info : UTF-8 Plain Text
    Duration : 2 h 28 min
    Bit rate : 29 b/s
    Frame rate : 0.117 FPS
    Count of elements : 1038
    Stream size : 32.2 KiB (0%)
    Title : Latin American
    Language : Spanish (Latin America)
    Default : No
    Forced : No
    Source : Netflix WEB-DL

    Text #12
    ID : 14
    Format : UTF-8
    Codec ID : S_TEXT/UTF8
    Codec ID/Info : UTF-8 Plain Text
    Duration : 2 h 21 min
    Bit rate : 26 b/s
    Frame rate : 0.123 FPS
    Count of elements : 1047
    Stream size : 27.8 KiB (0%)
    Title : Castilian
    Language : Spanish (ES)
    Default : No
    Forced : No
    Source : Netflix WEB-DL

    Text #13
    ID : 15
    Format : PGS
    Codec ID : S_HDMV/PGS
    Codec ID/Info : Picture based subtitle format used on BDs/HD-DVDs
    Duration : 2 h 22 min
    Bit rate : 19.0 kb/s
    Frame rate : 0.212 FPS
    Count of elements : 1816
    Stream size : 19.4 MiB (0%)
    Language : Finnish
    Default : No
    Forced : No
    Source : Universal Studios ITA Blu-ray (2010)

    Text #14
    ID : 16
    Format : PGS
    Codec ID : S_HDMV/PGS
    Codec ID/Info : Picture based subtitle format used on BDs/HD-DVDs
    Duration : 2 h 28 min
    Bit rate : 14.4 kb/s
    Frame rate : 0.205 FPS
    Count of elements : 1836
    Stream size : 15.4 MiB (0%)
    Title : Parisian
    Language : French (FR)
    Default : No
    Forced : No
    Source : Studio Canal UHD Blu-ray (2023)

    Text #15
    ID : 17
    Format : UTF-8
    Codec ID : S_TEXT/UTF8
    Codec ID/Info : UTF-8 Plain Text
    Duration : 2 h 22 min
    Bit rate : 40 b/s
    Frame rate : 0.116 FPS
    Count of elements : 989
    Stream size : 42.4 KiB (0%)
    Language : Hebrew
    Default : No
    Forced : No
    Source : Netflix WEB-DL

    Text #16
    ID : 18
    Format : UTF-8
    Codec ID : S_TEXT/UTF8
    Codec ID/Info : UTF-8 Plain Text
    Duration : 2 h 28 min
    Bit rate : 74 b/s
    Frame rate : 0.117 FPS
    Count of elements : 1041
    Stream size : 81.4 KiB (0%)
    Language : Hindi
    Default : No
    Forced : No
    Source : Netflix WEB-DL

    Text #17
    ID : 19
    Format : UTF-8
    Codec ID : S_TEXT/UTF8
    Codec ID/Info : UTF-8 Plain Text
    Duration : 2 h 28 min
    Bit rate : 29 b/s
    Frame rate : 0.122 FPS
    Count of elements : 1086
    Stream size : 31.5 KiB (0%)
    Language : Croatian
    Default : No
    Forced : No
    Source : Netflix WEB-DL

    Text #18
    ID : 20
    Format : UTF-8
    Codec ID : S_TEXT/UTF8
    Codec ID/Info : UTF-8 Plain Text
    Duration : 2 h 28 min
    Bit rate : 30 b/s
    Frame rate : 0.116 FPS
    Count of elements : 1031
    Stream size : 33.6 KiB (0%)
    Language : Hungarian
    Default : No
    Forced : No
    Source : Netflix WEB-DL

    Text #19
    ID : 21
    Format : UTF-8
    Codec ID : S_TEXT/UTF8
    Codec ID/Info : UTF-8 Plain Text
    Duration : 2 h 28 min
    Bit rate : 31 b/s
    Frame rate : 0.117 FPS
    Count of elements : 1040
    Stream size : 33.9 KiB (0%)
    Language : Indonesian
    Default : No
    Forced : No
    Source : Netflix WEB-DL

    Text #20
    ID : 22
    Format : PGS
    Codec ID : S_HDMV/PGS
    Codec ID/Info : Picture based subtitle format used on BDs/HD-DVDs
    Duration : 2 h 21 min
    Bit rate : 16.9 kb/s
    Frame rate : 0.231 FPS
    Count of elements : 1970
    Stream size : 17.1 MiB (0%)
    Language : Italian
    Default : No
    Forced : No
    Source : Universal Studios ITA Blu-ray (2010)

    Text #21
    ID : 23
    Format : UTF-8
    Codec ID : S_TEXT/UTF8
    Codec ID/Info : UTF-8 Plain Text
    Duration : 2 h 28 min
    Bit rate : 35 b/s
    Frame rate : 0.114 FPS
    Count of elements : 1014
    Stream size : 38.1 KiB (0%)
    Language : Icelandic
    Default : No
    Forced : No
    Source : Netflix WEB-DL

    Text #22
    ID : 24
    Format : UTF-8
    Codec ID : S_TEXT/UTF8
    Codec ID/Info : UTF-8 Plain Text
    Duration : 2 h 28 min
    Bit rate : 22 b/s
    Frame rate : 0.108 FPS
    Count of elements : 962
    Stream size : 24.7 KiB (0%)
    Language : Japanese
    Default : No
    Forced : No
    Source : Netflix WEB-DL

    Text #23
    ID : 25
    Format : UTF-8
    Codec ID : S_TEXT/UTF8
    Codec ID/Info : UTF-8 Plain Text
    Duration : 2 h 28 min
    Bit rate : 32 b/s
    Frame rate : 0.115 FPS
    Count of elements : 1022
    Stream size : 35.2 KiB (0%)
    Language : Korean
    Default : No
    Forced : No
    Source : Netflix WEB-DL

    Text #24
    ID : 26
    Format : UTF-8
    Codec ID : S_TEXT/UTF8
    Codec ID/Info : UTF-8 Plain Text
    Duration : 2 h 28 min
    Bit rate : 29 b/s
    Frame rate : 0.117 FPS
    Count of elements : 1040
    Stream size : 32.1 KiB (0%)
    Language : Malay
    Default : No
    Forced : No
    Source : Netflix WEB-DL

    Text #25
    ID : 27
    Format : PGS
    Codec ID : S_HDMV/PGS
    Codec ID/Info : Picture based subtitle format used on BDs/HD-DVDs
    Duration : 2 h 20 min
    Bit rate : 16.9 kb/s
    Frame rate : 0.199 FPS
    Count of elements : 1678
    Stream size : 16.9 MiB (0%)
    Language : Norwegian Bokmal
    Default : No
    Forced : No
    Source : Universal Studios ITA Blu-ray (2010)

    Text #26
    ID : 28
    Format : PGS
    Codec ID : S_HDMV/PGS
    Codec ID/Info : Picture based subtitle format used on BDs/HD-DVDs
    Duration : 2 h 22 min
    Bit rate : 19.3 kb/s
    Frame rate : 0.233 FPS
    Count of elements : 1982
    Stream size : 19.7 MiB (0%)
    Language : Dutch
    Default : No
    Forced : No
    Source : Universal Studios ITA Blu-ray (2010)

    Text #27
    ID : 29
    Format : PGS
    Codec ID : S_HDMV/PGS
    Codec ID/Info : Picture based subtitle format used on BDs/HD-DVDs
    Duration : 2 h 22 min
    Bit rate : 14.7 kb/s
    Frame rate : 0.220 FPS
    Count of elements : 1886
    Stream size : 15.0 MiB (0%)
    Language : Polish
    Default : No
    Forced : No
    Source : Galapagos POL Blu-ray (2019)

    Text #28
    ID : 30
    Format : PGS
    Codec ID : S_HDMV/PGS
    Codec ID/Info : Picture based subtitle format used on BDs/HD-DVDs
    Duration : 2 h 21 min
    Bit rate : 16.4 kb/s
    Frame rate : 0.245 FPS
    Count of elements : 2084
    Stream size : 16.7 MiB (0%)
    Title : Brazilian
    Language : Portuguese (BR)
    Default : No
    Forced : No
    Source : Obras-Primas do Cinema BRA Blu-ray (2020)

    Text #29
    ID : 31
    Format : UTF-8
    Codec ID : S_TEXT/UTF8
    Codec ID/Info : UTF-8 Plain Text
    Duration : 2 h 28 min
    Bit rate : 29 b/s
    Frame rate : 0.115 FPS
    Count of elements : 1026
    Stream size : 32.3 KiB (0%)
    Title : Iberian
    Language : Portuguese (PT)
    Default : No
    Forced : No
    Source : Netflix WEB-DL

    Text #30
    ID : 32
    Format : UTF-8
    Codec ID : S_TEXT/UTF8
    Codec ID/Info : UTF-8 Plain Text
    Duration : 2 h 28 min
    Bit rate : 27 b/s
    Frame rate : 0.116 FPS
    Count of elements : 1030
    Stream size : 30.3 KiB (0%)
    Language : Romanian
    Default : No
    Forced : No
    Source : Netflix WEB-DL

    Text #31
    ID : 33
    Format : UTF-8
    Codec ID : S_TEXT/UTF8
    Codec ID/Info : UTF-8 Plain Text
    Duration : 2 h 28 min
    Bit rate : 49 b/s
    Frame rate : 0.118 FPS
    Count of elements : 1051
    Stream size : 53.7 KiB (0%)
    Language : Russian
    Default : No
    Forced : No
    Source : Netflix WEB-DL

    Text #32
    ID : 34
    Format : PGS
    Codec ID : S_HDMV/PGS
    Codec ID/Info : Picture based subtitle format used on BDs/HD-DVDs
    Duration : 2 h 22 min
    Bit rate : 17.2 kb/s
    Frame rate : 0.189 FPS
    Count of elements : 1614
    Stream size : 17.5 MiB (0%)
    Language : Northern Sami
    Default : No
    Forced : No
    Source : Universal Studios ITA Blu-ray (2010)

    Text #33
    ID : 35
    Format : UTF-8
    Codec ID : S_TEXT/UTF8
    Codec ID/Info : UTF-8 Plain Text
    Duration : 2 h 28 min
    Bit rate : 65 b/s
    Frame rate : 0.118 FPS
    Count of elements : 1050
    Stream size : 71.3 KiB (0%)
    Language : Thai
    Default : No
    Forced : No
    Source : Netflix WEB-DL

    Text #34
    ID : 36
    Format : UTF-8
    Codec ID : S_TEXT/UTF8
    Codec ID/Info : UTF-8 Plain Text
    Duration : 2 h 28 min
    Bit rate : 30 b/s
    Frame rate : 0.116 FPS
    Count of elements : 1035
    Stream size : 33.0 KiB (0%)
    Language : Turkish
    Default : No
    Forced : No
    Source : Netflix WEB-DL

    Text #35
    ID : 37
    Format : UTF-8
    Codec ID : S_TEXT/UTF8
    Codec ID/Info : UTF-8 Plain Text
    Duration : 2 h 28 min
    Bit rate : 44 b/s
    Frame rate : 0.116 FPS
    Count of elements : 1030
    Stream size : 48.8 KiB (0%)
    Language : Ukrainian
    Default : No
    Forced : No
    Source : Netflix WEB-DL

    Text #36
    ID : 38
    Format : UTF-8
    Codec ID : S_TEXT/UTF8
    Codec ID/Info : UTF-8 Plain Text
    Duration : 2 h 26 min
    Bit rate : 35 b/s
    Frame rate : 0.118 FPS
    Count of elements : 1038
    Stream size : 38.1 KiB (0%)
    Language : Vietnamese
    Default : No
    Forced : No
    Source : Netflix WEB-DL

    Text #37
    ID : 39
    Format : UTF-8
    Codec ID : S_TEXT/UTF8
    Codec ID/Info : UTF-8 Plain Text
    Duration : 2 h 28 min
    Bit rate : 27 b/s
    Frame rate : 0.117 FPS
    Count of elements : 1045
    Stream size : 29.6 KiB (0%)
    Title : Simplified
    Language : Chinese (Simplified)
    Default : No
    Forced : No
    Source : Netflix WEB-DL

    Text #38
    ID : 40
    Format : UTF-8
    Codec ID : S_TEXT/UTF8
    Codec ID/Info : UTF-8 Plain Text
    Duration : 2 h 28 min
    Bit rate : 27 b/s
    Frame rate : 0.118 FPS
    Count of elements : 1046
    Stream size : 30.1 KiB (0%)
    Title : Traditional
    Language : Chinese (Traditional)
    Default : No
    Forced : No
    Source : Netflix WEB-DL

    Menu
    00:00:00.000 : Interrupted Broadcast
    00:05:41.799 : Hiding Assets
    00:11:31.899 : Forced Quarters
    00:20:46.745 : Unwanted Guest
    00:23:47.759 : You\\\\\\\\\\\\\\\\\\\\\\\\\\\\\\\\\\\\\\\\\\\\\\\\\\\\\\\\\\\\\\\\\\\\\\\\\\\\\\\\\\\\\\\\\\\\\\\\\\\\\\\\\\\\\\\\\\\\\\\\\\\\\\\\\\\\\\\\\\\\\\\\\\\\\\\\\\\\\\\\\\\\\\\\\\\\\\\\\\\\\\\\\\\\\\\\\\\\\\\\\\\\\\\\\\\\\\\\\\\\\\\\\\\\\\\\\\\\\\\\\\\\\\\\\\\\\\\\\\\\\\\\\\\\\\\\\\\\\\\\\\\\\\\\\\\\\\\\\\\\\\\\\\\\\\\\\\\\\\\\\\\\\\\\\\\\\\\\\\\\\\\\\\\\\\\\\\\\\\\\\\\\\\\\\\\\\\\\\\\\\\\\\\\\\\\\\\\\\\\\\\\\\\\\\\\\\\\\\\\\\\\\\\\\\\\\\\\\\\\\\\\\\\\\\\\\\\\\\\\\\\\\\\\\\\\\\\\\\\\\\\\\\\\\\\\\\\\\\\\\\\\\\\\\\\\'re an Artist
    00:25:41.706 : Life in a Ghetto
    00:36:59.926 : Certificate of Employment
    00:42:22.331 : Immeasurable Pain
    00:49:18.830 : Saving One Life
    00:53:41.259 : Under the Stage
    00:58:29.380 : A Familiar Face
    01:04:07.134 : Amongst Potatoes
    01:09:44.180 : New Year\\\\\\\\\\\\\\\\\\\\\\\\\\\\\\\\\\\\\\\\\\\\\\\\\\\\\\\\\\\\\\\\\\\\\\\\\\\\\\\\\\\\\\\\\\\\\\\\\\\\\\\\\\\\\\\\\\\\\\\\\\\\\\\\\\\\\\\\\\\\\\\\\\\\\\\\\\\\\\\\\\\\\\\\\\\\\\\\\\\\\\\\\\\\\\\\\\\\\\\\\\\\\\\\\\\\\\\\\\\\\\\\\\\\\\\\\\\\\\\\\\\\\\\\\\\\\\\\\\\\\\\\\\\\\\\\\\\\\\\\\\\\\\\\\\\\\\\\\\\\\\\\\\\\\\\\\\\\\\\\\\\\\\\\\\\\\\\\\\\\\\\\\\\\\\\\\\\\\\\\\\\\\\\\\\\\\\\\\\\\\\\\\\\\\\\\\\\\\\\\\\\\\\\\\\\\\\\\\\\\\\\\\\\\\\\\\\\\\\\\\\\\\\\\\\\\\\\\\\\\\\\\\\\\\\\\\\\\\\\\\\\\\\\\\\\\\\\\\\\\\\\\\\\\\\\'s Eve
    01:17:08.915 : Other Side of the Wall
    01:22:24.856 : What Good?
    01:26:39.861 : A Loud Noise
    01:33:44.285 : The Lion\\\\\\\\\\\\\\\\\\\\\\\\\\\\\\\\\\\\\\\\\\\\\\\\\\\\\\\\\\\\\\\\\\\\\\\\\\\\\\\\\\\\\\\\\\\\\\\\\\\\\\\\\\\\\\\\\\\\\\\\\\\\\\\\\\\\\\\\\\\\\\\\\\\\\\\\\\\\\\\\\\\\\\\\\\\\\\\\\\\\\\\\\\\\\\\\\\\\\\\\\\\\\\\\\\\\\\\\\\\\\\\\\\\\\\\\\\\\\\\\\\\\\\\\\\\\\\\\\\\\\\\\\\\\\\\\\\\\\\\\\\\\\\\\\\\\\\\\\\\\\\\\\\\\\\\\\\\\\\\\\\\\\\\\\\\\\\\\\\\\\\\\\\\\\\\\\\\\\\\\\\\\\\\\\\\\\\\\\\\\\\\\\\\\\\\\\\\\\\\\\\\\\\\\\\\\\\\\\\\\\\\\\\\\\\\\\\\\\\\\\\\\\\\\\\\\\\\\\\\\\\\\\\\\\\\\\\\\\\\\\\\\\\\\\\\\\\\\\\\\\\\\\\\\\\\'s Den
    01:38:36.911 : Food for Time
    01:43:57.856 : Uprising in the Street
    01:50:29.122 : A Narrow Escape
    01:54:58.308 : Completely Destroyed
    02:00:36.687 : Nervous Hands
    02:15:43.051 : Mistaken Attire
    02:21:49.501 : End Credits



【蓝光REMUX 80.56 GB】:magnet:?xt=urn:btih:3f2437c49f6489a5f6fe3fdc6ec78636afb84837

钢琴家中文字幕下载 感谢K友@hyperd分享的字幕
https://www.4ksj.com/thread-79231-1-1.html

精彩评论36

chjcyc 发表于 2023-9-26 09:35:14
终于等到2160P的了,谢谢分享!这是一部值得多看、且收藏的。
回复 支持 1 反对 0

使用道具 举报

w13091897726 发表于 2023-9-26 09:45:21
感谢分享,辛苦!!!
回复 支持 反对

使用道具 举报

tandier 发表于 2023-9-26 10:28:48
经典,谢谢分享。
回复 支持 反对

使用道具 举报

hyperd 发表于 2023-9-26 10:37:06
4KSJ 一个不妥之处就是不能完整保留别的组织发布的原文件名,建议改之
回复 支持 反对

使用道具 举报

yjp001yy 发表于 2023-9-26 11:29:54
好电影啊  感谢提供下载
回复 支持 反对

使用道具 举报

团支部书记 发表于 2023-9-26 12:05:09
此片必须收藏!
回复 支持 反对

使用道具 举报

fswwen 发表于 2023-9-26 12:24:41
谢谢分享
回复 支持 反对

使用道具 举报

zjbasten09 发表于 2023-9-26 14:30:30
re3ceiver 发表于 2023-9-26 09:32
管理员,本蓝光原盘为一个mkv文件,标明为H265,体积也没有REMUX的大,应该不是原盘吧。

不是原盘
回复 支持 反对

使用道具 举报

LOCKPAT 发表于 2023-9-26 14:38:29
可惜不是原盘
回复 支持 反对

使用道具 举报

xuhao577 发表于 2023-9-26 15:08:11
hyperd 发表于 2023-9-26 10:37
4KSJ 一个不妥之处就是不能完整保留别的组织发布的原文件名,建议改之

CiNEPHiLES.mkv 65.71 GB
回复 支持 反对

使用道具 举报

hyperd 发表于 2023-9-26 15:44:36
xuhao577 发表于 2023-9-26 15:08
CiNEPHiLES.mkv 65.71 GB

这个我知道,上次我发了个完整的原组织发布的名,还被记了一次违规
回复 支持 反对

使用道具 举报

ld139770 发表于 2023-9-26 16:31:38
好片不错,谢谢分享
回复 支持 反对

使用道具 举报

hzm123456 发表于 2023-9-26 19:43:43
等待原盘!!!
回复 支持 反对

使用道具 举报

auto68 发表于 2023-9-26 20:26:56
经典,值得等待原盘!
回复 支持 反对

使用道具 举报

foxcc426 发表于 2023-9-26 20:28:53
此片必须收藏!
回复 支持 反对

使用道具 举报

您需要登录后才可以回帖 登录 | 立即注册

本版积分规则

推荐影视全站推荐影视下载
  • 7.6

    5 天前/4K(3840x2160)

    旺卡4k

    DISC INFO: Disc Title: Wonka Disc Label: Wonka 2023 UHD Blu-ray 2160p HEVC Atmos TrueHD 7.1-4ksj Disc Size: 79,227,084,016 bytes Protection: AACS2 Extras: Ultra HD, BD-Java BDInfo: 0.7.5.7 PLAYLIST REPORT: Name: 00800.MPLS Length: 1:56:16.427 (h:m:s.ms) Size: 71,513,819,136 bytes Total Bitrate: 82.01 Mbps (*) Indicates included stream hidden by this playlist. VIDEO: Codec Bitrate Description ----- ------- ----------- MPEG-H HEVC Video 71447 kbps 2160p / 23.976 fps / 16:9 / Main 10 @ Level 5.1 @ High / 10 bits / HDR10 / BT.2020 * MPEG-H HEVC Video 69 kbps 1080p / 23.976 fps / 16:9 / Main 10 @ Level 5.1 @ High / 10 bits / Dolby Vision / BT.2020 AUDIO: Codec Language Bitrate Description ----- -------- ------- ----------- Dolby TrueHD/Atmos Audio English 3644 kbps 7.1 / 48 kHz / 3196 kbps / 24-bit (AC3 Embedded: 5.1 / 48 kHz / 448 kbps / DN -27dB) Dolby Digital Audio English 640 kbps 5.1 / 48 kHz / 640 kbps / DN -27dB Dolby Digital Audio French 640 kbps 5.1 / 48 kHz / 640 kbps / DN -27dB Dolby Digital Audio Spanish 640 kbps 5.1 / 48 kHz / 640 kbps / DN -27dB SUBTITLES: Codec Language Bitrate Description ----- -------- ------- ----------- Presentation Graphics English 55.187 kbps Presentation Graphics French 38.536 kbps Presentation Graphics Spanish 43.597 kbps Presentation Graphics Chinese 33.862 kbps 简体中文 Presentation Graphics Chinese 34.317 kbps 繁体中文 Presentation Graphics Chinese 63.789 kbps 简英双语 Presentation Graphics Chinese 64.245 kbps 繁英双语 Presentation Graphics French 0.645 kbps Presentation Graphics Spanish 0.806 kbps FILES: Name Time In Length Size Total Bitrate ---- ------- ------ ---- ------------- 00063.M2TS 0:00:00.000 1:56:16.427 71,513,819,136 82,005

    旺卡4k(2023年)
    7.6
    ①网盘资源信息:
    剧情简介: 影片聚焦经典之作《查理和巧克力工厂》的主人公威利·旺卡(提莫西·查拉梅 饰),这位年轻且天赋异禀的发明家、魔术师、巧克力制作师,是如何经历奇幻冒险,成长为观众挚爱的巧克力工厂掌门人的故事。
    7.6

    5 天前/4K(3840x2160)

    飞鸭向前冲4k

    DISC INFO: Disc Title: Migration.2023.UHD.BluRay.2160p.HEVC.Atmos.TrueHD7.1-4KSJ Disc Size: 84,774,773,743 bytes Protection: AACS2 Extras: Ultra HD, BD-Java BDInfo: 0.7.5.9 (compatible layout created by DVDFab 12.0.5.1) PLAYLIST REPORT: Name: 00040.MPLS Length: 1:22:53.968 (h:m:s.ms) Size: 59,453,638,656 bytes Total Bitrate: 95.62 Mbps (*) Indicates included stream hidden by this playlist. VIDEO: Codec Bitrate Description ----- ------- ----------- MPEG-H HEVC Video 77410 kbps 2160p / 23.976 fps / 16:9 / Main 10 @ Level 5.1 @ High / 4:2:0 / 10 bits / 4000nits / HDR10 / BT.2020 * MPEG-H HEVC Video 7758 kbps (9.11%) 1080p / 23.976 fps / 16:9 / Main 10 @ Level 5.1 @ High / 4:2:0 / 10 bits / 4000nits / Dolby Vision FEL / BT.2020 AUDIO: Codec Language Bitrate Description ----- -------- ------- ----------- Dolby TrueHD/Atmos Audio English 3748 kbps 7.1+11 objects / 48 kHz / 3300 kbps / 16-bit (AC3 Core: 5.1 / 48 kHz / 448 kbps) Dolby Digital Plus Audio Spanish 768 kbps 7.1 / 48 kHz / 768 kbps (AC3 Core: 5.1 / 48 kHz / 448 kbps ( Core: 5.1 / 48 kHz / 448 kbps)) Dolby Digital Audio French 640 kbps 5.1 / 48 kHz / 640 kbps SUBTITLES: Codec Language Bitrate Description ----- -------- ------- ----------- Presentation Graphics English 51.976 kbps Presentation Graphics Spanish 35.422 kbps Presentation Graphics French 35.272 kbps Presentation Graphics French 0.046 kbps

    飞鸭向前冲4k(2023年)
    7.6
    ①网盘资源信息:
    剧情简介:飞鸭马拉德一家向南迁徙前往热带的牙买加,却意外闯入疯狂大都市纽约?在紧张刺激的飞行之旅中,他们将如何化险为夷?
    7.1

    昨天 04:10/4K(3840x2160)

    传染病4K

    Disc Title: Contagion Disc Label: Contagion.2011.2160p.UHD.Blu-ray.HEVC.DTS-HD.MA 5.1-4ksj Disc Size: 59,293,884,479 bytes Protection: AACS2 Playlist: 00800.MPLS Size: 55,033,394,496 bytes Length: 1:46:24.711 Total Bitrate: 68.96 Mbps Video: MPEG-H HEVC Video / 58225 kbps / 2160p / 23.976 fps / 16:9 / Main 10 @ Level 5.1 @ High / 10 bits / HDR10 / BT.2020 Audio: English / DTS-HD Master Audio / 5.1 / 48 kHz / 2167 kbps / 16-bit (DTS Core: 5.1 / 48 kHz / 1509 kbps / 16-bit) Audio: French / Dolby Digital Audio / 5.1 / 48 kHz / 640 kbps / DN -27dB Audio: French / Dolby Digital Audio / 5.1 / 48 kHz / 640 kbps / DN -27dB Audio: German / Dolby Digital Audio / 5.1 / 48 kHz / 640 kbps / DN -27dB Audio: Italian / Dolby Digital Audio / 5.1 / 48 kHz / 640 kbps / DN -27dB Audio: Spanish / Dolby Digital Audio / 5.1 / 48 kHz / 640 kbps / DN -27dB Audio: Spanish / Dolby Digital Audio / 5.1 / 48 kHz / 640 kbps / DN -27dB Audio: Czech / Dolby Digital Audio / 5.1 / 48 kHz / 640 kbps / DN -27dB Subtitle: English / 42.035 kbps Subtitle: French / 31.877 kbps Subtitle: German / 48.734 kbps Subtitle: Italian / 40.717 kbps Subtitle: Spanish / 36.837 kbps Subtitle: Dutch / 31.293 kbps Subtitle: Chinese / 32.748 kbps Subtitle: Chinese / 33.087 kbps Subtitle: Korean / 23.136 kbps Subtitle: Spanish / 35.346 kbps Subtitle: Czech / 30.910 kbps Subtitle: Danish / 32.222 kbps Subtitle: Finnish / 27.835 kbps Subtitle: Norwegian / 27.857 kbps Subtitle: Swedish / 31.847 kbps Subtitle: French / 1.309 kbps Subtitle: French / 1.309 kbps Subtitle: German / 1.213 kbps Subtitle: Italian / 1.787 kbps Subtitle: Spanish / 1.499 kbps Subtitle: Spanish / 0.752 kbps Subtitle: Czech / 0.885 kbps

    传染病4K(2010年)
    7.1
    ①网盘资源信息:
    剧情简介:影片讲述了一种新型致命病毒在几天之内席卷全球的故事。贝丝(格温妮丝·帕特洛 Gwyneth Paltrow 饰)从香港出差回明尼阿波利斯的家后突发疾病死亡,丈夫托马斯 (马特·达蒙 Matt Damon 饰)协助Dr. Erin Mears (凯特·温斯莱特 Kate Winslet 饰)调查真相。可怕的是同样病症的患者在世界范围内大规模出现,病毒在不停蔓延。阴谋论记者阿伦(裘德·洛 Jude Law 饰)趁机散布对政府和医疗机构不利的舆论。Dr. Leonora Orantes (玛丽昂·歌迪亚 Marion Cotillard 饰)被派往香港调查病因,但却被本土医生(黄经汉 Chin Han 饰)扣留作为交换疫苗的人质。在Dr. Ellis Cheever (劳伦斯·菲什伯恩 Laurence Fishburne 饰)和年轻医生Ally Hextall(詹妮弗·艾莉 Jennifer Ehle 饰)的努力下,终于研制出治疗病毒的疫苗,事件终于得以平静。 值得一提的是本片还有港星何超仪和徐天佑的卖力出演。
    7.1

    5 天前/4K(3840x2160)

    夜行骇传4k

    DISC INFO: Disc Title: Nightbreed Disc Label: Nightbreed.1990.UHD.BluRay.2160p.HEVC.DTS-HD.MA5.1-4ksj Disc Size: 71,939,292,655 bytes Protection: AACS2 Extras: Ultra HD BDInfo: 0.7.5.8 PLAYLIST REPORT: Name: 00002.MPLS Length: 1:41:37.841 (h:m:s.ms) Size: 71,086,750,464 bytes Total Bitrate: 93.26 Mbps (*) Indicates included stream hidden by this playlist. VIDEO: Codec Bitrate Description ----- ------- ----------- MPEG-H HEVC Video 76496 kbps 2160p / 23.976 fps / 16:9 / Main 10 @ Level 5.1 @ High / 10 bits / HDR10 / BT.2020 * MPEG-H HEVC Video 8542 kbps 1080p / 23.976 fps / 16:9 / Main 10 @ Level 5.1 @ High / 10 bits / Dolby Vision / BT.2020 AUDIO: Codec Language Bitrate Description ----- -------- ------- ----------- DTS-HD Master Audio English 1573 kbps 2.0 / 48 kHz / 1573 kbps / 24-bit (DTS Core: 2.0 / 48 kHz / 1509 kbps / 24-bit) DTS-HD Master Audio English 1855 kbps 5.1 / 48 kHz / 1855 kbps / 24-bit (DTS Core: 5.1 / 48 kHz / 1509 kbps / 24-bit) Dolby Digital Audio English 192 kbps 2.0 / 48 kHz / 192 kbps / DN -27dB SUBTITLES: Codec Language Bitrate Description ----- -------- ------- ----------- Presentation Graphics Chinese 15.556 kbps Presentation Graphics Chinese 15.885 kbps Presentation Graphics Chinese 26.417 kbps Presentation Graphics Chinese 26.746 kbps Presentation Graphics English 25.850 kbps

    夜行骇传4k(90年代)
    7.1
    ①网盘资源信息:
    剧情简介: 一个变态杀人心理医生,为摆脱其杀人罪名,便一再催眠他的病患 \'波恩\',让波恩误以为自己就是那一连串灭门血案的杀人狂,并且还通知警察逮捕他。波恩,是夜行族的一员,本以为在他找到夜行族的栖息国度之后,便可快乐的过属于自己的生活,没想到却一再受到变态杀人医生的阻挠,甚至还以将杀害波恩挚爱的女友来胁迫波恩就范…。在这些 〃自然人类〃(变态杀人医生 &.欲毁灭夜行族的地方警察)与 〃夜行族群〃的打斗过程同时,波恩也发现了自己与生俱来的重要使命….。本片内容极具神秘色彩,将带您进入不一样的想像国度。
    5.1

    5 天前/4K(3840x2160)

    最后的风之子4k

    最后的风之子4k(2010年)
    5.1
    ①网盘资源信息:
    剧情简介:本片由知名动画剧集《Avatar:The Last Airbender》改编而成。   水、火、土、气,乃支配世界的四大元素。操纵这四大元素的四个种族,分别是气和寺,水善部落,火烈国,土强王国。火烈国挑起了战争,气和寺被毁灭,水善部落面临灭绝,逃到了与世隔绝的冰天雪地;只有土强国仍在反抗。   降世神通,是世上唯可以保护世界的平衡与和谐之人,却突然失踪。弹指百年,水深火热中的人们早已忘记了救世主的传说。而在南极雪原上,冰层突然爆裂,冰封的球形中出现了个12岁的神秘男孩安(诺亚·林格 noah ringer 饰),而这个孩子竟然就是失踪已久的降世神通!在水部落卡塔拉(妮可拉·佩尔茨 Nicola Peltz 饰)和哥哥索卡(杰克逊·拉斯波恩 Jackson Rathbone 饰)的帮助下,安被唤醒体内神力,最终与同伴一起踏上拯救人类的道路。可这个孩子是否能阻止邪恶的火烈国征服世界呢?
2015-2023 www.4ksj.com  4K世界 |网站地图
京ICP证160991号 京公网安备11010802015683号 Copyright ©2023 All Rights Reserved.
    *本站提供的所有电影资源均来自互联网,仅限交流使用,请在下载后的2小时内删除,所有版权皆属原公司所有,如果认为本站侵犯了您的版权,请告知,我们会立即删除。