注册/登陆
游客您好
第三方账号登陆
22英里4k.Mile.22.2018.HDR.2160p.电影下载
[复制链接]
2023-10-05 发布
  • 4K大师玩家
  • 20
  • 2813
静待花开 发表于 2023-10-5 11:11:20 |阅读模式 打印 上一主题 下一主题

22英里4k
2018年(豆瓣:6.9)
  • 电影声道:5.1声道 
  • 电影语言:英文字幕   
  • 画质标准 HDR 
  • 资源版本 WEB-DL 4K   
  • 帧数/FPS:23.976 Fps
    发布排行: 第部4K原盘
    导  演:彼得·博格
    制片国家:美国 
    电影分类:动作 犯罪 冒险 
    分 辨 率:4K(3840x2160)
简介 驻扎在印度尼西亚的美国CIA探员,詹姆斯·席尔瓦,从小就有狂躁症的他,却是数一数二的特工。他所属的精密作战小队从接到任务开始就不再归属任何国家的管控。正当席尔瓦的团队在为放射性核武器的下落苦恼时,当地警官李努尔,也是团队的污点证人,突然现身并揭发了核武器的所在。剩下的核武器所在地点被他加密 保存,他要求席尔瓦等人8小时内把他送出印尼,才会说出密码,否则所有未找到的核武器就会同时爆炸。时间紧迫,席尔瓦等人立即向CIA递交了辞呈准备先锋护送行动,目的是把李努尔送到22英里之外的飞机“天使号”上,并得到李努尔手中的磁盘密码。短短的22英里,却是危机四伏,当地的印尼特工为了追捕李努尔,对席尔瓦进行了沉痛的打击。但他们双方都不知道的是,俄方情报局正在背后秘密监视着整个行动,席尔瓦等人也并不知道这场行动从一开始就是场特洛伊行动。
  • 网盘①


    提取码①
    无链接, 或无权限
    网盘②


    访问码②
    中文字幕


    BT种子 / 磁力链下载
  • 电影信息INFO
    Video
    ID : 1
    Format : HEVC
    Format/Info : High Efficiency Video Coding
    Format profile : Main 10@L5@High
    HDR format : SMPTE ST 2094 App 4, Version 1, HDR10+ Profile B compatible
    Codec ID : V_MPEGH/ISO/HEVC
    Duration : 1 h 34 min
    Bit rate : 24.2 Mb/s
    Width : 3 832 pixels
    Height : 1 588 pixels
    Display aspect ratio : 2.40:1
    Frame rate mode : Constant
    Frame rate : 23.976 (24000/1001) FPS
    Color space : YUV
    Chroma subsampling : 4:2:0 (Type 2)
    Bit depth : 10 bits
    Bits/(Pixel*Frame) : 0.166
    Stream size : 15.9 GiB (98%)
    Default : Yes
    Forced : No
    Color range : Limited
    Color primaries : BT.2020
    Transfer characteristics : PQ
    Matrix coefficients : BT.2020 non-constant
    Mastering display color primaries : BT.2020
    Mastering display luminance : min: 0.0050 cd/m2, max: 1000 cd/m2
    Maximum Content Light Level : 4317 cd/m2
    Maximum Frame-Average Light Level : 1937 cd/m2

    Audio
    ID : 2
    Format : AC-3
    Format/Info : Audio Coding 3
    Commercial name : Dolby Digital
    Codec ID : A_AC3
    Duration : 1 h 34 min
    Bit rate mode : Constant
    Bit rate : 384 kb/s
    Channel(s) : 6 channels
    Channel layout : L R C LFE Ls Rs
    Sampling rate : 48.0 kHz
    Frame rate : 31.250 FPS (1536 SPF)
    Compression mode : Lossy
    Stream size : 259 MiB (2%)
    Language : English
    Service kind : Complete Main
    Default : Yes
    Forced : No

    Text
    ID : 3
    Format : UTF-8
    Codec ID : S_TEXT/UTF8
    Codec ID/Info : UTF-8 Plain Text
    Duration : 1 h 27 min
    Bit rate : 81 b/s
    Frame rate : 0.262 FPS
    Count of elements : 1380
    Stream size : 52.4 KiB (0%)
    Title : English CC
    Language : English
    Default : No
    Forced : No

    Menu
    00:00:00.000 : en:Chapter 01
    00:15:56.289 : en:Chapter 02
    00:28:23.244 : en:Chapter 03
    00:42:08.069 : en:Chapter 04
    00:57:11.848 : en:Chapter 05
    01:11:45.055 : en:Chapter 06
    01:26:46.790 : en:Chapter 07

拳力逃脱(台) / 绝地22哩(港)/22英里4k.Mile.22.2018.HDR.2160p.WEB.H265-4k电影下载

22英里4k.Mile.22.2018.HDR.2160p.WEB.H265【16.20 GB】
磁力链下载:
magnet:?xt=urn:btih:7297a737d17ea74a2eba8d4e169eaf1507906fcb&dn

22英里4k.Mile.22.2018.DV.2160p.WEB.H265【杜比视界】【9.76 GB】
磁力链下载:
magnet:?xt=urn:btih:58912811cf442fc75998d1f8fcb79aa78949810c&dn

22英里中文字幕下载 感谢K友@老廖分享的字幕
https://www.4ksj.com/thread-79415-1-2.html

精彩评论2

r31325 发表于 2023-10-7 11:06:56
这个评分可以的
回复 支持 反对

使用道具 举报

lyjnyh 发表于 2024-1-25 14:51:08
回复 支持 反对

使用道具 举报

您需要登录后才可以回帖 登录 | 立即注册

本版积分规则

推荐影视全站推荐影视下载
  • 6.1

    6 天前/4K(3840x2160)

    哈丽特4k

    Disc Title: HARRIET Disc Label: Harriet.2019.2160p.UHD.Blu-ray.HEVC.TrueHD.Atmos.7.1 Disc Size: 57,624,940,050 bytes Protection: AACS2 Playlist: 00000.MPLS Size: 52,566,663,168 bytes Length: 2:05:07.082 Total Bitrate: 56.02 Mbps Video: MPEG-H HEVC Video / 46999 kbps / 2160p / 23.976 fps / 16:9 / Main 10 @ Level 5.1 @ High / 10 bits / HDR10 / BT.2020 Audio: English / Dolby TrueHD/Atmos Audio / 7.1 / 48 kHz / 3331 kbps / 16-bit (AC3 Embedded: 5.1 / 48 kHz / 448 kbps / DN -27dB) Audio: French / Dolby Digital Audio / 5.1 / 48 kHz / 640 kbps / DN -27dB Audio: Spanish / Dolby Digital Plus Audio / 7.1 / 48 kHz / 768 kbps / DN -27dB (AC3 Embedded: 5.1 / 48 kHz / 448 kbps / DN -27dB) Audio: English / Dolby Digital Audio / 2.0 / 48 kHz / 192 kbps / DN -27dB Subtitle: English / 34.163 kbps Subtitle: French / 30.708 kbps Subtitle: Spanish / 28.135 kbps Subtitle: French / 0.850 kbps Subtitle: Spanish / 1.099 kbps

    哈丽特4k(2019年)
    6.1
    ①网盘资源信息:
    剧情简介:乔·阿尔文、小莱斯利·奥多姆将加盟传记影片[哈丽特],先前宣布加盟的卡司包括辛西娅·埃里沃、克拉克·彼得斯等。塞斯·曼恩(《国土安全》)执导。哈丽特·塔布曼生于1822年,原本是生活在马里兰州的黑奴,1849年她逃到北方,不久后加入到帮助奴隶逃亡的美国“地下铁路”中,成为最活跃的领袖之一,多次回到家乡带领其他奴隶逃往北方。南北战争爆发后,塔布曼积极参战,成为北军中为数不多的女性,战后她投身了争取妇女权益的运动。哈丽特也是首位登上美元的女性。影片将于下月在美国弗吉尼亚州开拍。
    7.0

    7 天前/4K(3840x2160)

    饥饿游戏:鸣鸟与蛇之歌4K

    Video #1 ID: 4113 (0x1011) Menu ID: 1 (0x1) Format: HEVC Format/Info: High Efficiency Video Coding Format profile: Main 10@L5.1@High HDR format: SMPTE ST 2086, HDR10 compatible Codec ID: 36 Duration: 2h 37m Width: 3840 pixels Height: 2160 pixels Display aspect ratio: 16:9 Frame rate: 23.976 (24000/1001) FPS Color space: YUV Chroma subsampling: 4:2:0 (Type 2) Bit depth: 10 bits Color range: Limited Color primaries: BT.2020 Transfer characteristics: PQ Matrix coefficients: BT.2020 non-constant Mastering display color primaries: Display P3 Mastering display luminance: min: 0.0001 cd/m2, max: 1000 cd/m2 Maximum Content Light Level: 999 cd/m2 Maximum Frame-Average Light Level: 122 cd/m2 Video #2 (Dolby Vision) ID: 4117 (0x1015) Menu ID: 1 (0x1) Format: HEVC Format/Info: High Efficiency Video Coding Format profile: Main 10@L5.1@High HDR format: SMPTE ST 2086, HDR10 compatible Codec ID: 36 Duration: 2h 37m Width: 1920 pixels Height: 1080 pixels Display aspect ratio: 16:9 Frame rate: 23.976 (24000/1001) FPS Color space: YUV Chroma subsampling: 4:2:0 (Type 2) Bit depth: 10 bits Color range: Limited Color primaries: BT.2020 Transfer characteristics: PQ Matrix coefficients: BT.2020 non-constant Mastering display color primaries: Display P3 Mastering display luminance: min: 0.0001 cd/m2, max: 1000 cd/m2 Audio #1 ID: 4352 (0x1100) Menu ID: 1 (0x1) Format: MLP FBA AC-3 16-ch Format/Info: Meridian Lossless Packing FBA with 16-channel presentation Commercial name: Dolby TrueHD with Dolby Atmos Muxing mode: Stream extension Codec ID: 131 Duration: 2h 37m Bit rate mode: Variable Bit rate: 640 kb/s Maximum bit rate: 7395 kb/s Channel(s): 8 channels Channel layout: L R C LFE Ls Rs Lb Rb Sampling rate: 48.0 kHz Frame rate: 31.250 FPS (1536 SPF) Compression mode: Lossless Stream size: 719 MiB (1%) Service kind: Complete Main Number of dynamic objects: 11 Bed channel count: 1 channel Bed channel configuration: LFE

    ①网盘资源信息:
    剧情简介:8岁的科里奥兰纳斯·斯诺(汤姆·布莱斯 饰)被选为第十届饥饿游戏的导师,与来自第十二区的贫困女孩露西·格蕾·贝尔德(瑞秋·齐格勒 饰)成为了“生死相依”的命运共同体。竞技场上,这是一场关乎自由、食物,甚至是尊重与权利的生死角逐;竞技场外,不忍与善意使斯诺决定不顾一切帮助露西在这场游戏中赢得胜利......当活下去的欲望与所遵守的规则背道而驰,命运的齿轮紧抓入自己手中时,他又该如何抉择?   影片改编自苏珊·柯林斯的同名小说。
    6.2

    7 天前/4K(3840x2160)

    金手指4k

    General............: The.Goldfinger.2023.2160p.HQ.WEB-DL.H265.60fps.DDP5.1.2Audio-4ksj Duration...........: 02:05:47.031 (HH:MM:SS:FF) RELEASE.SIZE.......: 23.6 GiB VIDEO.CODEC........: HEVC Main 10@L5.1@Main FRAMERATE..........: 60.000 fps VIDEO.BITRATE......: 24.9 Mb/s RESOLUTION.........: 3840 x 1608 ASPECT.RATIO.......: 2.40:1 Audio..............: E-AC-3 6 channels 448 kb/s Chinese Cantonese [DDP5.1] Audio..............: E-AC-3 6 channels 448 kb/s Chinese Mandarin [DDP5.1] Audio..............: E-AC-3 2 channels 256 kb/s Chinese Cantonese [DDP2.0] Audio..............: E-AC-3 2 channels 256 kb/s Chinese Mandarin [DDP2.0] Audio..............: AAC 2 channels 256 kb/s Chinese Cantonese [AAC2.0] Audio..............: AAC 2 channels 256 kb/s Chinese Mandarin [AAC2.0]

    金手指4k(2023年)
    6.2
    ①网盘资源信息:
    剧情简介:用100元的投入换来百亿奢靡人生,看穷小子不择手段颠覆规则将财富和权势玩弄于股掌之中!上市公司嘉文集团在短短几年间从默默无名到风生水起,再到没落清盘,市值蒸发超过一百亿。幕后老板程一言(梁朝伟 饰)也从万众瞩目的股民偶像变成人人喊打的过街老鼠。高级调查主任刘启源(刘德华 饰)长达十五年锲而不舍地搜证和跨境调查,消耗超过两亿诉讼费,竟发现局中有局案中有案,牵涉数条人命并波及香港整个上流社会,究竟谁在幕后?谁能逃脱?谁会出局?
    7.6

    前天 08:52/4K(3840x2160)

    旺卡4k

    DISC INFO: Disc Title: Wonka Disc Label: Wonka 2023 UHD Blu-ray 2160p HEVC Atmos TrueHD 7.1-4ksj Disc Size: 79,227,084,016 bytes Protection: AACS2 Extras: Ultra HD, BD-Java BDInfo: 0.7.5.7 PLAYLIST REPORT: Name: 00800.MPLS Length: 1:56:16.427 (h:m:s.ms) Size: 71,513,819,136 bytes Total Bitrate: 82.01 Mbps (*) Indicates included stream hidden by this playlist. VIDEO: Codec Bitrate Description ----- ------- ----------- MPEG-H HEVC Video 71447 kbps 2160p / 23.976 fps / 16:9 / Main 10 @ Level 5.1 @ High / 10 bits / HDR10 / BT.2020 * MPEG-H HEVC Video 69 kbps 1080p / 23.976 fps / 16:9 / Main 10 @ Level 5.1 @ High / 10 bits / Dolby Vision / BT.2020 AUDIO: Codec Language Bitrate Description ----- -------- ------- ----------- Dolby TrueHD/Atmos Audio English 3644 kbps 7.1 / 48 kHz / 3196 kbps / 24-bit (AC3 Embedded: 5.1 / 48 kHz / 448 kbps / DN -27dB) Dolby Digital Audio English 640 kbps 5.1 / 48 kHz / 640 kbps / DN -27dB Dolby Digital Audio French 640 kbps 5.1 / 48 kHz / 640 kbps / DN -27dB Dolby Digital Audio Spanish 640 kbps 5.1 / 48 kHz / 640 kbps / DN -27dB SUBTITLES: Codec Language Bitrate Description ----- -------- ------- ----------- Presentation Graphics English 55.187 kbps Presentation Graphics French 38.536 kbps Presentation Graphics Spanish 43.597 kbps Presentation Graphics Chinese 33.862 kbps 简体中文 Presentation Graphics Chinese 34.317 kbps 繁体中文 Presentation Graphics Chinese 63.789 kbps 简英双语 Presentation Graphics Chinese 64.245 kbps 繁英双语 Presentation Graphics French 0.645 kbps Presentation Graphics Spanish 0.806 kbps FILES: Name Time In Length Size Total Bitrate ---- ------- ------ ---- ------------- 00063.M2TS 0:00:00.000 1:56:16.427 71,513,819,136 82,005

    旺卡4k(2023年)
    7.6
    ①网盘资源信息:
    剧情简介: 影片聚焦经典之作《查理和巧克力工厂》的主人公威利·旺卡(提莫西·查拉梅 饰),这位年轻且天赋异禀的发明家、魔术师、巧克力制作师,是如何经历奇幻冒险,成长为观众挚爱的巧克力工厂掌门人的故事。
    7.6

    前天 08:00/4K(3840x2160)

    飞鸭向前冲4k

    DISC INFO: Disc Title: Migration.2023.UHD.BluRay.2160p.HEVC.Atmos.TrueHD7.1-4KSJ Disc Size: 84,774,773,743 bytes Protection: AACS2 Extras: Ultra HD, BD-Java BDInfo: 0.7.5.9 (compatible layout created by DVDFab 12.0.5.1) PLAYLIST REPORT: Name: 00040.MPLS Length: 1:22:53.968 (h:m:s.ms) Size: 59,453,638,656 bytes Total Bitrate: 95.62 Mbps (*) Indicates included stream hidden by this playlist. VIDEO: Codec Bitrate Description ----- ------- ----------- MPEG-H HEVC Video 77410 kbps 2160p / 23.976 fps / 16:9 / Main 10 @ Level 5.1 @ High / 4:2:0 / 10 bits / 4000nits / HDR10 / BT.2020 * MPEG-H HEVC Video 7758 kbps (9.11%) 1080p / 23.976 fps / 16:9 / Main 10 @ Level 5.1 @ High / 4:2:0 / 10 bits / 4000nits / Dolby Vision FEL / BT.2020 AUDIO: Codec Language Bitrate Description ----- -------- ------- ----------- Dolby TrueHD/Atmos Audio English 3748 kbps 7.1+11 objects / 48 kHz / 3300 kbps / 16-bit (AC3 Core: 5.1 / 48 kHz / 448 kbps) Dolby Digital Plus Audio Spanish 768 kbps 7.1 / 48 kHz / 768 kbps (AC3 Core: 5.1 / 48 kHz / 448 kbps ( Core: 5.1 / 48 kHz / 448 kbps)) Dolby Digital Audio French 640 kbps 5.1 / 48 kHz / 640 kbps SUBTITLES: Codec Language Bitrate Description ----- -------- ------- ----------- Presentation Graphics English 51.976 kbps Presentation Graphics Spanish 35.422 kbps Presentation Graphics French 35.272 kbps Presentation Graphics French 0.046 kbps

    飞鸭向前冲4k(2023年)
    7.6
    ①网盘资源信息:
    剧情简介:飞鸭马拉德一家向南迁徙前往热带的牙买加,却意外闯入疯狂大都市纽约?在紧张刺激的飞行之旅中,他们将如何化险为夷?
2015-2023 www.4ksj.com  4K世界 |网站地图
京ICP证160991号 京公网安备11010802015683号 Copyright ©2023 All Rights Reserved.
    *本站提供的所有电影资源均来自互联网,仅限交流使用,请在下载后的2小时内删除,所有版权皆属原公司所有,如果认为本站侵犯了您的版权,请告知,我们会立即删除。