注册/登陆
游客您好
第三方账号登陆
十日坏人4k.10.Days.of.a.Bad.Man.2023.2160p.电影下载
[复制链接]
2023-10-09 发布
  • 4K大师玩家
  • 20
  • 2794
静待花开 发表于 2023-10-9 20:57:18 |阅读模式 打印 上一主题 下一主题

十日坏人4k
2023年(豆瓣:5.6)
  • 电影声道:5.1声道 
  • 电影语言:中文简体   中文繁体   英文字幕   
  • 画质标准 HDR 
  • 资源版本 WEB-DL 4K   
  • 帧数/FPS:25.000 Fps
    发布排行: 第部4K原盘
    导  演:Uluç Bayraktar
    制片国家:其他 
    电影分类:犯罪 剧情 悬疑 
    分 辨 率:4K(3840x2160)
简介深受重创、心力憔悴、痛失亲人,这名私家侦探必须顶住压力,破解错综复杂的谎言,揭开一桩别墅谋杀案背后的真相。
  • 网盘①


    提取码①
    无链接, 或无权限
    网盘②


    访问码②
    中文字幕


    BT种子 / 磁力链下载
  • 电影信息INFO
    Video
    ID : 1
    Format : HEVC
    Format/Info : High Efficiency Video Coding
    Format profile : Main 10@L5@Main
    Codec ID : V_MPEGH/ISO/HEVC
    Duration : 2 h 3 min
    Bit rate : 11.4 Mb/s
    Width : 3 840 pixels
    Height : 2 160 pixels
    Display aspect ratio : 16:9
    Frame rate mode : Constant
    Frame rate : 25.000 FPS
    Color space : YUV
    Chroma subsampling : 4:2:0
    Bit depth : 10 bits
    Bits/(Pixel*Frame) : 0.055
    Stream size : 9.76 GiB (90%)
    Default : Yes
    Forced : No
    Color range : Limited
    Color primaries : BT.709
    Transfer characteristics : BT.709
    Matrix coefficients : BT.709

    Audio #1
    ID : 2
    Format : E-AC-3
    Format/Info : Enhanced AC-3
    Commercial name : Dolby Digital Plus
    Codec ID : A_EAC3
    Duration : 2 h 3 min
    Bit rate mode : Constant
    Bit rate : 640 kb/s
    Channel(s) : 6 channels
    Channel layout : L R C LFE Ls Rs
    Sampling rate : 48.0 kHz
    Frame rate : 31.250 FPS (1536 SPF)
    Compression mode : Lossy
    Stream size : 563 MiB (5%)
    Language : Turkish
    Service kind : Complete Main
    Default : Yes
    Forced : No

    Audio #2
    ID : 3
    Format : E-AC-3
    Format/Info : Enhanced AC-3
    Commercial name : Dolby Digital Plus
    Codec ID : A_EAC3
    Duration : 2 h 3 min
    Bit rate mode : Constant
    Bit rate : 640 kb/s
    Channel(s) : 6 channels
    Channel layout : L R C LFE Ls Rs
    Sampling rate : 48.0 kHz
    Frame rate : 31.250 FPS (1536 SPF)
    Compression mode : Lossy
    Stream size : 563 MiB (5%)
    Language : English
    Service kind : Complete Main
    Default : No
    Forced : No

    Text #1
    ID : 4
    Format : UTF-8
    Codec ID : S_TEXT/UTF8
    Codec ID/Info : UTF-8 Plain Text
    Duration : 2 h 1 min
    Bit rate : 64 b/s
    Frame rate : 0.238 FPS
    Count of elements : 1737
    Stream size : 57.3 KiB (0%)
    Language : English
    Default : Yes
    Forced : No

    Text #2
    ID : 5
    Format : UTF-8
    Codec ID : S_TEXT/UTF8
    Codec ID/Info : UTF-8 Plain Text
    Duration : 2 h 1 min
    Bit rate : 0 b/s
    Frame rate : 0.004 FPS
    Count of elements : 27
    Stream size : 591 Bytes (0%)
    Title : Dub (Forced)
    Language : English
    Default : No
    Forced : Yes

    Text #3
    ID : 6
    Format : UTF-8
    Codec ID : S_TEXT/UTF8
    Codec ID/Info : UTF-8 Plain Text
    Duration : 1 h 56 min
    Bit rate : 76 b/s
    Frame rate : 0.269 FPS
    Count of elements : 1874
    Stream size : 65.1 KiB (0%)
    Title : Dub
    Language : English
    Default : No
    Forced : No

    Text #4
    ID : 7
    Format : UTF-8
    Codec ID : S_TEXT/UTF8
    Codec ID/Info : UTF-8 Plain Text
    Duration : 1 h 59 min
    Bit rate : 83 b/s
    Frame rate : 0.304 FPS
    Count of elements : 2191
    Stream size : 72.9 KiB (0%)
    Title : Dub (SDH)
    Language : English
    Default : No
    Forced : No

    Text #5
    ID : 8
    Format : UTF-8
    Codec ID : S_TEXT/UTF8
    Codec ID/Info : UTF-8 Plain Text
    Duration : 2 h 1 min
    Bit rate : 101 b/s
    Frame rate : 0.232 FPS
    Count of elements : 1695
    Stream size : 90.5 KiB (0%)
    Language : Arabic
    Default : No
    Forced : No

    Text #6
    ID : 9
    Format : UTF-8
    Codec ID : S_TEXT/UTF8
    Codec ID/Info : UTF-8 Plain Text
    Duration : 2 h 1 min
    Bit rate : 58 b/s
    Frame rate : 0.229 FPS
    Count of elements : 1667
    Stream size : 52.0 KiB (0%)
    Language : Czech
    Default : No
    Forced : No

    Text #7
    ID : 10
    Format : UTF-8
    Codec ID : S_TEXT/UTF8
    Codec ID/Info : UTF-8 Plain Text
    Duration : 2 h 1 min
    Bit rate : 58 b/s
    Frame rate : 0.210 FPS
    Count of elements : 1529
    Stream size : 51.9 KiB (0%)
    Language : Danish
    Default : No
    Forced : No

    Text #8
    ID : 11
    Format : UTF-8
    Codec ID : S_TEXT/UTF8
    Codec ID/Info : UTF-8 Plain Text
    Duration : 2 h 1 min
    Bit rate : 62 b/s
    Frame rate : 0.228 FPS
    Count of elements : 1663
    Stream size : 55.5 KiB (0%)
    Language : German
    Default : No
    Forced : No

    Text #9
    ID : 12
    Format : UTF-8
    Codec ID : S_TEXT/UTF8
    Codec ID/Info : UTF-8 Plain Text
    Duration : 2 h 1 min
    Bit rate : 103 b/s
    Frame rate : 0.221 FPS
    Count of elements : 1614
    Stream size : 92.5 KiB (0%)
    Language : Greek
    Default : No
    Forced : No

    Text #10
    ID : 13
    Format : UTF-8
    Codec ID : S_TEXT/UTF8
    Codec ID/Info : UTF-8 Plain Text
    Duration : 2 h 1 min
    Bit rate : 60 b/s
    Frame rate : 0.221 FPS
    Count of elements : 1613
    Stream size : 54.1 KiB (0%)
    Title : Latin American
    Language : Spanish (Latin America)
    Default : No
    Forced : No

    Text #11
    ID : 14
    Format : UTF-8
    Codec ID : S_TEXT/UTF8
    Codec ID/Info : UTF-8 Plain Text
    Duration : 2 h 1 min
    Bit rate : 56 b/s
    Frame rate : 0.226 FPS
    Count of elements : 1648
    Stream size : 50.5 KiB (0%)
    Language : Spanish (ES)
    Default : No
    Forced : No

    Text #12
    ID : 15
    Format : UTF-8
    Codec ID : S_TEXT/UTF8
    Codec ID/Info : UTF-8 Plain Text
    Duration : 2 h 1 min
    Bit rate : 58 b/s
    Frame rate : 0.227 FPS
    Count of elements : 1657
    Stream size : 51.9 KiB (0%)
    Language : fil
    Default : No
    Forced : No

    Text #13
    ID : 16
    Format : UTF-8
    Codec ID : S_TEXT/UTF8
    Codec ID/Info : UTF-8 Plain Text
    Duration : 2 h 1 min
    Bit rate : 57 b/s
    Frame rate : 0.204 FPS
    Count of elements : 1491
    Stream size : 50.9 KiB (0%)
    Language : Finnish
    Default : No
    Forced : No

    Text #14
    ID : 17
    Format : UTF-8
    Codec ID : S_TEXT/UTF8
    Codec ID/Info : UTF-8 Plain Text
    Duration : 2 h 1 min
    Bit rate : 61 b/s
    Frame rate : 0.220 FPS
    Count of elements : 1605
    Stream size : 54.4 KiB (0%)
    Language : French
    Default : No
    Forced : No

    Text #15
    ID : 18
    Format : UTF-8
    Codec ID : S_TEXT/UTF8
    Codec ID/Info : UTF-8 Plain Text
    Duration : 2 h 1 min
    Bit rate : 97 b/s
    Frame rate : 0.229 FPS
    Count of elements : 1669
    Stream size : 87.1 KiB (0%)
    Language : Hebrew
    Default : No
    Forced : No

    Text #16
    ID : 19
    Format : UTF-8
    Codec ID : S_TEXT/UTF8
    Codec ID/Info : UTF-8 Plain Text
    Duration : 2 h 1 min
    Bit rate : 55 b/s
    Frame rate : 0.232 FPS
    Count of elements : 1692
    Stream size : 49.2 KiB (0%)
    Language : Croatian
    Default : No
    Forced : No

    Text #17
    ID : 20
    Format : UTF-8
    Codec ID : S_TEXT/UTF8
    Codec ID/Info : UTF-8 Plain Text
    Duration : 2 h 1 min
    Bit rate : 62 b/s
    Frame rate : 0.229 FPS
    Count of elements : 1672
    Stream size : 55.6 KiB (0%)
    Language : Hungarian
    Default : No
    Forced : No

    Text #18
    ID : 21
    Format : UTF-8
    Codec ID : S_TEXT/UTF8
    Codec ID/Info : UTF-8 Plain Text
    Duration : 2 h 1 min
    Bit rate : 58 b/s
    Frame rate : 0.233 FPS
    Count of elements : 1702
    Stream size : 51.7 KiB (0%)
    Language : Indonesian
    Default : No
    Forced : No

    Text #19
    ID : 22
    Format : UTF-8
    Codec ID : S_TEXT/UTF8
    Codec ID/Info : UTF-8 Plain Text
    Duration : 2 h 1 min
    Bit rate : 59 b/s
    Frame rate : 0.231 FPS
    Count of elements : 1688
    Stream size : 53.1 KiB (0%)
    Language : Italian
    Default : No
    Forced : No

    Text #20
    ID : 23
    Format : UTF-8
    Codec ID : S_TEXT/UTF8
    Codec ID/Info : UTF-8 Plain Text
    Duration : 2 h 1 min
    Bit rate : 63 b/s
    Frame rate : 0.259 FPS
    Count of elements : 1889
    Stream size : 56.2 KiB (0%)
    Language : Japanese
    Default : No
    Forced : No

    Text #21
    ID : 24
    Format : UTF-8
    Codec ID : S_TEXT/UTF8
    Codec ID/Info : UTF-8 Plain Text
    Duration : 2 h 1 min
    Bit rate : 77 b/s
    Frame rate : 0.239 FPS
    Count of elements : 1746
    Stream size : 69.3 KiB (0%)
    Language : Korean
    Default : No
    Forced : No

    Text #22
    ID : 25
    Format : UTF-8
    Codec ID : S_TEXT/UTF8
    Codec ID/Info : UTF-8 Plain Text
    Duration : 2 h 1 min
    Bit rate : 58 b/s
    Frame rate : 0.233 FPS
    Count of elements : 1703
    Stream size : 51.8 KiB (0%)
    Language : Malay
    Default : No
    Forced : No

    Text #23
    ID : 26
    Format : UTF-8
    Codec ID : S_TEXT/UTF8
    Codec ID/Info : UTF-8 Plain Text
    Duration : 2 h 1 min
    Bit rate : 60 b/s
    Frame rate : 0.171 FPS
    Count of elements : 1248
    Stream size : 53.5 KiB (0%)
    Language : Norwegian Bokmal
    Default : No
    Forced : No

    Text #24
    ID : 27
    Format : UTF-8
    Codec ID : S_TEXT/UTF8
    Codec ID/Info : UTF-8 Plain Text
    Duration : 1 h 55 min
    Bit rate : 57 b/s
    Frame rate : 0.214 FPS
    Count of elements : 1488
    Stream size : 48.7 KiB (0%)
    Language : Dutch
    Default : No
    Forced : No

    Text #25
    ID : 28
    Format : UTF-8
    Codec ID : S_TEXT/UTF8
    Codec ID/Info : UTF-8 Plain Text
    Duration : 2 h 1 min
    Bit rate : 57 b/s
    Frame rate : 0.191 FPS
    Count of elements : 1394
    Stream size : 51.6 KiB (0%)
    Language : Polish
    Default : No
    Forced : No

    Text #26
    ID : 29
    Format : UTF-8
    Codec ID : S_TEXT/UTF8
    Codec ID/Info : UTF-8 Plain Text
    Duration : 1 h 56 min
    Bit rate : 59 b/s
    Frame rate : 0.233 FPS
    Count of elements : 1627
    Stream size : 50.8 KiB (0%)
    Title : Brazilian
    Language : Portuguese (BR)
    Default : No
    Forced : No

    Text #27
    ID : 30
    Format : UTF-8
    Codec ID : S_TEXT/UTF8
    Codec ID/Info : UTF-8 Plain Text
    Duration : 2 h 1 min
    Bit rate : 61 b/s
    Frame rate : 0.249 FPS
    Count of elements : 1816
    Stream size : 54.4 KiB (0%)
    Language : Portuguese (PT)
    Default : No
    Forced : No

    Text #28
    ID : 31
    Format : UTF-8
    Codec ID : S_TEXT/UTF8
    Codec ID/Info : UTF-8 Plain Text
    Duration : 2 h 1 min
    Bit rate : 66 b/s
    Frame rate : 0.219 FPS
    Count of elements : 1596
    Stream size : 59.2 KiB (0%)
    Language : Romanian
    Default : No
    Forced : No

    Text #29
    ID : 32
    Format : UTF-8
    Codec ID : S_TEXT/UTF8
    Codec ID/Info : UTF-8 Plain Text
    Duration : 2 h 1 min
    Bit rate : 94 b/s
    Frame rate : 0.222 FPS
    Count of elements : 1620
    Stream size : 83.9 KiB (0%)
    Language : Russian
    Default : No
    Forced : No

    Text #30
    ID : 33
    Format : UTF-8
    Codec ID : S_TEXT/UTF8
    Codec ID/Info : UTF-8 Plain Text
    Duration : 2 h 1 min
    Bit rate : 61 b/s
    Frame rate : 0.224 FPS
    Count of elements : 1633
    Stream size : 54.4 KiB (0%)
    Language : Swedish
    Default : No
    Forced : No

    Text #31
    ID : 34
    Format : UTF-8
    Codec ID : S_TEXT/UTF8
    Codec ID/Info : UTF-8 Plain Text
    Duration : 2 h 1 min
    Bit rate : 154 b/s
    Frame rate : 0.238 FPS
    Count of elements : 1735
    Stream size : 138 KiB (0%)
    Language : Thai
    Default : No
    Forced : No

    Text #32
    ID : 35
    Format : UTF-8
    Codec ID : S_TEXT/UTF8
    Codec ID/Info : UTF-8 Plain Text
    Duration : 46 min 47 s
    Bit rate : 0 b/s
    Frame rate : 0.002 FPS
    Count of elements : 7
    Stream size : 175 Bytes (0%)
    Title : Forced
    Language : Turkish
    Default : No
    Forced : Yes

    Text #33
    ID : 36
    Format : UTF-8
    Codec ID : S_TEXT/UTF8
    Codec ID/Info : UTF-8 Plain Text
    Duration : 1 h 55 min
    Bit rate : 71 b/s
    Frame rate : 0.223 FPS
    Count of elements : 1553
    Stream size : 60.5 KiB (0%)
    Language : Turkish
    Default : No
    Forced : No

    Text #34
    ID : 37
    Format : UTF-8
    Codec ID : S_TEXT/UTF8
    Codec ID/Info : UTF-8 Plain Text
    Duration : 2 h 1 min
    Bit rate : 85 b/s
    Frame rate : 0.264 FPS
    Count of elements : 1929
    Stream size : 76.6 KiB (0%)
    Title : SDH
    Language : Turkish
    Default : No
    Forced : No

    Text #35
    ID : 38
    Format : UTF-8
    Codec ID : S_TEXT/UTF8
    Codec ID/Info : UTF-8 Plain Text
    Duration : 2 h 1 min
    Bit rate : 95 b/s
    Frame rate : 0.234 FPS
    Count of elements : 1707
    Stream size : 85.4 KiB (0%)
    Language : Ukrainian
    Default : No
    Forced : No

    Text #36
    ID : 39
    Format : UTF-8
    Codec ID : S_TEXT/UTF8
    Codec ID/Info : UTF-8 Plain Text
    Duration : 2 h 1 min
    Bit rate : 90 b/s
    Frame rate : 0.238 FPS
    Count of elements : 1732
    Stream size : 79.8 KiB (0%)
    Language : Vietnamese
    Default : No
    Forced : No

    Text #37
    ID : 40
    Format : UTF-8
    Codec ID : S_TEXT/UTF8
    Codec ID/Info : UTF-8 Plain Text
    Duration : 2 h 1 min
    Bit rate : 66 b/s
    Frame rate : 0.237 FPS
    Count of elements : 1731
    Stream size : 59.0 KiB (0%)
    Title : Simplified
    Language : Chinese (Simplified)
    Default : No
    Forced : No

    Text #38
    ID : 41
    Format : UTF-8
    Codec ID : S_TEXT/UTF8
    Codec ID/Info : UTF-8 Plain Text
    Duration : 2 h 1 min
    Bit rate : 59 b/s
    Frame rate : 0.237 FPS
    Count of elements : 1727
    Stream size : 53.4 KiB (0%)
    Title : Traditional
    Language : Chinese (Traditional)
    Default : No
    Forced : No

    Menu
    00:00:00.000 : en:Main
    01:57:42.000 : en:Credits

10 Days of a Bad Man/十日坏人4k.10.Days.of.a.Bad.Man.2023.2160p.NF.WEB-DL.DUAL.DDP5.1.H.265-4k电影下载

十日坏人4k.10.Days.of.a.Bad.Man.2023.2160p.NF.WEB-DL.DUAL.DDP5.1.H.265【10.87 GB】
磁力链下载:
magnet:?xt=urn:btih:4173dd20c899ffc953d263e8f2495b917760a616&dn
您需要登录后才可以回帖 登录 | 立即注册

本版积分规则

推荐影视全站推荐影视下载
  • 6.1

    3 天前/4K(3840x2160)

    哈丽特4k

    Disc Title: HARRIET Disc Label: Harriet.2019.2160p.UHD.Blu-ray.HEVC.TrueHD.Atmos.7.1 Disc Size: 57,624,940,050 bytes Protection: AACS2 Playlist: 00000.MPLS Size: 52,566,663,168 bytes Length: 2:05:07.082 Total Bitrate: 56.02 Mbps Video: MPEG-H HEVC Video / 46999 kbps / 2160p / 23.976 fps / 16:9 / Main 10 @ Level 5.1 @ High / 10 bits / HDR10 / BT.2020 Audio: English / Dolby TrueHD/Atmos Audio / 7.1 / 48 kHz / 3331 kbps / 16-bit (AC3 Embedded: 5.1 / 48 kHz / 448 kbps / DN -27dB) Audio: French / Dolby Digital Audio / 5.1 / 48 kHz / 640 kbps / DN -27dB Audio: Spanish / Dolby Digital Plus Audio / 7.1 / 48 kHz / 768 kbps / DN -27dB (AC3 Embedded: 5.1 / 48 kHz / 448 kbps / DN -27dB) Audio: English / Dolby Digital Audio / 2.0 / 48 kHz / 192 kbps / DN -27dB Subtitle: English / 34.163 kbps Subtitle: French / 30.708 kbps Subtitle: Spanish / 28.135 kbps Subtitle: French / 0.850 kbps Subtitle: Spanish / 1.099 kbps

    哈丽特4k(2019年)
    6.1
    ①网盘资源信息:
    剧情简介:乔·阿尔文、小莱斯利·奥多姆将加盟传记影片[哈丽特],先前宣布加盟的卡司包括辛西娅·埃里沃、克拉克·彼得斯等。塞斯·曼恩(《国土安全》)执导。哈丽特·塔布曼生于1822年,原本是生活在马里兰州的黑奴,1849年她逃到北方,不久后加入到帮助奴隶逃亡的美国“地下铁路”中,成为最活跃的领袖之一,多次回到家乡带领其他奴隶逃往北方。南北战争爆发后,塔布曼积极参战,成为北军中为数不多的女性,战后她投身了争取妇女权益的运动。哈丽特也是首位登上美元的女性。影片将于下月在美国弗吉尼亚州开拍。
    7.0

    4 天前/4K(3840x2160)

    饥饿游戏:鸣鸟与蛇之歌4K

    Video #1 ID: 4113 (0x1011) Menu ID: 1 (0x1) Format: HEVC Format/Info: High Efficiency Video Coding Format profile: Main 10@L5.1@High HDR format: SMPTE ST 2086, HDR10 compatible Codec ID: 36 Duration: 2h 37m Width: 3840 pixels Height: 2160 pixels Display aspect ratio: 16:9 Frame rate: 23.976 (24000/1001) FPS Color space: YUV Chroma subsampling: 4:2:0 (Type 2) Bit depth: 10 bits Color range: Limited Color primaries: BT.2020 Transfer characteristics: PQ Matrix coefficients: BT.2020 non-constant Mastering display color primaries: Display P3 Mastering display luminance: min: 0.0001 cd/m2, max: 1000 cd/m2 Maximum Content Light Level: 999 cd/m2 Maximum Frame-Average Light Level: 122 cd/m2 Video #2 (Dolby Vision) ID: 4117 (0x1015) Menu ID: 1 (0x1) Format: HEVC Format/Info: High Efficiency Video Coding Format profile: Main 10@L5.1@High HDR format: SMPTE ST 2086, HDR10 compatible Codec ID: 36 Duration: 2h 37m Width: 1920 pixels Height: 1080 pixels Display aspect ratio: 16:9 Frame rate: 23.976 (24000/1001) FPS Color space: YUV Chroma subsampling: 4:2:0 (Type 2) Bit depth: 10 bits Color range: Limited Color primaries: BT.2020 Transfer characteristics: PQ Matrix coefficients: BT.2020 non-constant Mastering display color primaries: Display P3 Mastering display luminance: min: 0.0001 cd/m2, max: 1000 cd/m2 Audio #1 ID: 4352 (0x1100) Menu ID: 1 (0x1) Format: MLP FBA AC-3 16-ch Format/Info: Meridian Lossless Packing FBA with 16-channel presentation Commercial name: Dolby TrueHD with Dolby Atmos Muxing mode: Stream extension Codec ID: 131 Duration: 2h 37m Bit rate mode: Variable Bit rate: 640 kb/s Maximum bit rate: 7395 kb/s Channel(s): 8 channels Channel layout: L R C LFE Ls Rs Lb Rb Sampling rate: 48.0 kHz Frame rate: 31.250 FPS (1536 SPF) Compression mode: Lossless Stream size: 719 MiB (1%) Service kind: Complete Main Number of dynamic objects: 11 Bed channel count: 1 channel Bed channel configuration: LFE

    ①网盘资源信息:
    剧情简介:8岁的科里奥兰纳斯·斯诺(汤姆·布莱斯 饰)被选为第十届饥饿游戏的导师,与来自第十二区的贫困女孩露西·格蕾·贝尔德(瑞秋·齐格勒 饰)成为了“生死相依”的命运共同体。竞技场上,这是一场关乎自由、食物,甚至是尊重与权利的生死角逐;竞技场外,不忍与善意使斯诺决定不顾一切帮助露西在这场游戏中赢得胜利......当活下去的欲望与所遵守的规则背道而驰,命运的齿轮紧抓入自己手中时,他又该如何抉择?   影片改编自苏珊·柯林斯的同名小说。
    6.2

    4 天前/4K(3840x2160)

    金手指4k

    General............: The.Goldfinger.2023.2160p.HQ.WEB-DL.H265.60fps.DDP5.1.2Audio-4ksj Duration...........: 02:05:47.031 (HH:MM:SS:FF) RELEASE.SIZE.......: 23.6 GiB VIDEO.CODEC........: HEVC Main 10@L5.1@Main FRAMERATE..........: 60.000 fps VIDEO.BITRATE......: 24.9 Mb/s RESOLUTION.........: 3840 x 1608 ASPECT.RATIO.......: 2.40:1 Audio..............: E-AC-3 6 channels 448 kb/s Chinese Cantonese [DDP5.1] Audio..............: E-AC-3 6 channels 448 kb/s Chinese Mandarin [DDP5.1] Audio..............: E-AC-3 2 channels 256 kb/s Chinese Cantonese [DDP2.0] Audio..............: E-AC-3 2 channels 256 kb/s Chinese Mandarin [DDP2.0] Audio..............: AAC 2 channels 256 kb/s Chinese Cantonese [AAC2.0] Audio..............: AAC 2 channels 256 kb/s Chinese Mandarin [AAC2.0]

    金手指4k(2023年)
    6.2
    ①网盘资源信息:
    剧情简介:用100元的投入换来百亿奢靡人生,看穷小子不择手段颠覆规则将财富和权势玩弄于股掌之中!上市公司嘉文集团在短短几年间从默默无名到风生水起,再到没落清盘,市值蒸发超过一百亿。幕后老板程一言(梁朝伟 饰)也从万众瞩目的股民偶像变成人人喊打的过街老鼠。高级调查主任刘启源(刘德华 饰)长达十五年锲而不舍地搜证和跨境调查,消耗超过两亿诉讼费,竟发现局中有局案中有案,牵涉数条人命并波及香港整个上流社会,究竟谁在幕后?谁能逃脱?谁会出局?
    8.6

    7 天前/4K(3840x2160)

    王立宇宙军:欧尼亚米斯之翼4k

    DISC INFO: Disc Title: Royal.Space.Force.Wings.of.Honneamise.1987.2160p.UHD.Blu-ray.HEVC.TrueHD5.1-4ksj Disc Size: 97,507,860,070 bytes Protection: AACS2 Extras: Ultra HD BDInfo: 0.7.6.1 (compatible layout created by DVDFab 12.1.1.5) PLAYLIST REPORT: Name: 00001.MPLS Length: 1:59:50.183 (h:m:s.ms) Size: 96,049,711,104 bytes Total Bitrate: 106.87 Mbps VIDEO: Codec Bitrate Description ----- ------- ----------- MPEG-H HEVC Video 94676 kbps 2160p / 23.976 fps / 16:9 / Main 10 @ Level 5.1 @ High / 4:2:0 / 10 bits / 1000nits / HDR10 / BT.2020 AUDIO: Codec Language Bitrate Description ----- -------- ------- ----------- LPCM Audio Japanese 2304 kbps 2.0 / 48 kHz / 2304 kbps / 24-bit Dolby TrueHD Audio Japanese 2376 kbps 5.1 / 48 kHz / 1736 kbps / 16-bit (AC3 Core: 5.1 / 48 kHz / 640 kbps) LPCM Audio English 1536 kbps 2.0 / 48 kHz / 1536 kbps / 16-bit SUBTITLES: Codec Language Bitrate Description ----- -------- ------- ----------- Presentation Graphics English 28.952 kbps Presentation Graphics Japanese 19.983 kbps Presentation Graphics Chinese 30.536 kbps Presentation Graphics Chinese 31.649 kbps

    ①网盘资源信息:
    剧情简介:在奥内米斯王国里,有一支本应担任宇宙探险飞行的军队——王立宇宙军。但由于种种因素,他们始终只是一支无所作为的军队,甚至被其他军队视为废物。原本安于现状,只是在军队中混日子的年轻士官希洛兹(森本玲夫 配音),与美丽的少女莉库妮(弥生みつき 配音)邂逅,被她的单纯与虔诚所吸引,逐渐开始改变自己的人生态度——成为第一个探索宇宙的人,让“王立宇宙军”成为名副其实的宇宙探索者。   但现实是残酷的,奥内米斯王国内部的腐败使他们的信念一次次受挫,似乎人们都更关注于地面上丑陋的斗争,虽然王立宇宙军最后得到了飞行的机会,但那确是帝国内部的阴谋,企图牺牲希洛兹搭乘的火箭,以作为和邻国开战的借口。即便这样,希洛兹还是坐上了火箭,他能否看到太空中的日出呢……
    7.9

    6 天前/4K(3840x2160)

    西雅图未眠夜4k

    Video: MPEG-H HEVC Video / 77338 kbps / 2160p / 23.976 fps / 16:9 / Main 10 @ Level 5.1 @ High / 4:2:0 / 10 bits / 2000nits / HDR10 / BT.2020 Video: * MPEG-H HEVC Video / 2100 kbps / 1080p / 23.976 fps / 16:9 / Main 10 @ Level 5.1 @ High / 4:2:0 / 10 bits / 2000nits / Dolby Vision FEL / BT.2020 Audio: English / Dolby TrueHD/Atmos Audio / 7.1+11 objects / 48 kHz / 3948 kbps / 24-bit (AC3 Core: 5.1 / 48 kHz / 640 kbps) Audio: English / DTS-HD Master Audio / 5.1 / 48 kHz / 2148 kbps / 16-bit (DTS Core: 5.1 / 48 kHz / 1509 kbps / 16-bit) Audio: English / DTS-HD Master Audio / 2.0 / 48 kHz / 1555 kbps / 16-bit (DTS Core: 2.0 / 48 kHz / 1509 kbps / 16-bit) Audio: French / DTS-HD Master Audio / 2.0 / 48 kHz / 1555 kbps / 16-bit (DTS Core: 2.0 / 48 kHz / 1509 kbps / 16-bit) Audio: French / DTS-HD Master Audio / 2.0 / 48 kHz / 1556 kbps / 16-bit (DTS Core: 2.0 / 48 kHz / 1509 kbps / 16-bit) Audio: German / DTS-HD Master Audio / 2.0 / 48 kHz / 1556 kbps / 16-bit (DTS Core: 2.0 / 48 kHz / 1509 kbps / 16-bit) Audio: Italian / DTS-HD Master Audio / 2.0 / 48 kHz / 1555 kbps / 16-bit (DTS Core: 2.0 / 48 kHz / 1509 kbps / 16-bit) Audio: Korean / DTS-HD Master Audio / 2.0 / 48 kHz / 1561 kbps / 16-bit (DTS Core: 2.0 / 48 kHz / 1509 kbps / 16-bit) Audio: Spanish / DTS-HD Master Audio / 2.0 / 48 kHz / 1557 kbps / 16-bit (DTS Core: 2.0 / 48 kHz / 1509 kbps / 16-bit) Audio: Spanish / Dolby Digital Audio / 2.0 / 48 kHz / 192 kbps / Dolby Surround Audio: Thai / DTS-HD Master Audio / 2.0 / 48 kHz / 1558 kbps / 16-bit (DTS Core: 2.0 / 48 kHz / 1509 kbps / 16-bit) Audio: Turkish / DTS-HD Master Audio / 2.0 / 48 kHz / 1559 kbps / 16-bit (DTS Core: 2.0 / 48 kHz / 1509 kbps / 16-bit) Subtitle: English / 44.139 kbps Subtitle: English / 33.446 kbps Subtitle: English / 44.151 kbps Subtitle: English / 33.461 kbps Subtitle: Arabic / 17.208 kbps Subtitle: Chinese / 24.02 kbps Subtitle: Chinese / 29.461 kbps Subtitle: Danish / 25.709 kbps Subtitle: Dutch / 26.198 kbps Subtitle: Finnish / 27.629 kbps Subtitle: French / 28.433 kbps Subtitle: German / 28.544 kbps Subtitle: Italian / 26.934 kbps Subtitle: Korean / 21.502 kbps Subtitle: Norwegian / 25.264 kbps Subtitle: Portuguese / 26.138 kbps Subtitle: Spanish / 25.553 kbps Subtitle: Spanish / 31.147 kbps Subtitle: Swedish / 22.422 kbps Subtitle: Thai / 31.84 kbps Subtitle: Turkish / 29.039 kbps Subtitle: French / 0.638 kbps

    西雅图未眠夜4k(90年代)
    7.9
    ①网盘资源信息:
    剧情简介:自从妻子去世后,萨姆(汤姆·汉克斯 Tom Hanks饰)就相信自己此生的爱已经走到了尽头,不会再有新的恋情走进心中,他在西雅图和儿子乔纳一起平静的生活。而乔纳,却一直希望爸爸能够开始新的婚姻,重获生活的阳光。   抱着这样的想法,乔纳在圣诞夜打电话到电台的情感热线。就这样,萨姆的经历在此夜传遍了各个角落,很多人在倾听他的故事,其中包括安妮(梅格·瑞安 Meg Ryan饰)——一个住在东部的女记者。她善良,温柔,有一个知心的好友,和一个即将结婚的男友。然而,幸福的生活就被这个电话彻底打破了。她的内心有一种冲动,让她一步步地接近这个远在西部的男人。   然而,一次次辗转的错过让萨姆和安妮迟迟不能会面。屡次在缘份的天空下失诸交臂的二人,一直为爱而奔波,等待一个遇见的机缘。
2015-2023 www.4ksj.com  4K世界 |网站地图
京ICP证160991号 京公网安备11010802015683号 Copyright ©2023 All Rights Reserved.
    *本站提供的所有电影资源均来自互联网,仅限交流使用,请在下载后的2小时内删除,所有版权皆属原公司所有,如果认为本站侵犯了您的版权,请告知,我们会立即删除。