注册/登陆
游客您好
第三方账号登陆
觉醒4k.Awareness.2023.2160p.电影下载
[复制链接]
2023-10-11 发布
  • 4K大师玩家
  • 20
  • 2813
静待花开 发表于 2023-10-11 16:05:33 |阅读模式 打印 上一主题 下一主题

觉醒4k
2023年(豆瓣:0)
  • 电影声道:5.1声道 
  • 电影语言:中文简体   中文繁体   英文字幕   
  • 画质标准 HDR 
  • 资源版本 WEB-DL 4K   
  • 帧数/FPS:23.976 Fps
    发布排行: 第部4K原盘
    导  演:丹尼尔·本梅尔
    制片国家:西班牙 
    电影分类:科幻 
    分 辨 率:4K(3840x2160)
简介伊恩是一名少年,与父亲住在郊区,利用特殊能力对毫无戒心的受害者产生视觉幻觉,进行一些小骗局。当他的能力在公共场合失控时,事情变得复杂起来。
  • 网盘①


    提取码①
    无链接, 或无权限
    网盘②


    访问码②
    中文字幕


    BT种子 / 磁力链下载
  • 电影信息INFO
    Video
    ID : 1
    Format : HEVC
    Format/Info : High Efficiency Video Coding
    Format profile : Main@L5@Main
    Codec ID : V_MPEGH/ISO/HEVC
    Duration : 1 h 53 min
    Bit rate : 14.5 Mb/s
    Width : 3 840 pixels
    Height : 1 600 pixels
    Display aspect ratio : 2.40:1
    Frame rate mode : Constant
    Frame rate : 23.976 (24000/1001) FPS
    Color space : YUV
    Chroma subsampling : 4:2:0
    Bit depth : 8 bits
    Bits/(Pixel*Frame) : 0.099
    Stream size : 11.5 GiB (94%)
    Default : Yes
    Forced : No
    Color range : Limited
    Color primaries : BT.709
    Transfer characteristics : BT.709
    Matrix coefficients : BT.709

    Audio
    ID : 2
    Format : E-AC-3
    Format/Info : Enhanced AC-3
    Commercial name : Dolby Digital Plus
    Codec ID : A_EAC3
    Duration : 1 h 53 min
    Bit rate mode : Constant
    Bit rate : 640 kb/s
    Channel(s) : 6 channels
    Channel layout : L R C LFE Ls Rs
    Sampling rate : 48.0 kHz
    Frame rate : 31.250 FPS (1536 SPF)
    Compression mode : Lossy
    Stream size : 521 MiB (4%)
    Language : Spanish
    Service kind : Complete Main
    Default : Yes
    Forced : No

    Text #1
    ID : 3
    Format : ASS
    Codec ID : S_TEXT/ASS
    Codec ID/Info : Advanced Sub Station Alpha
    Compression mode : Lossless
    Title : English
    Language : English
    Default : Yes
    Forced : Yes

    Text #2
    ID : 4
    Format : ASS
    Codec ID : S_TEXT/ASS
    Codec ID/Info : Advanced Sub Station Alpha
    Compression mode : Lossless
    Title : Arabic
    Language : Arabic
    Default : No
    Forced : No

    Text #3
    ID : 5
    Format : ASS
    Codec ID : S_TEXT/ASS
    Codec ID/Info : Advanced Sub Station Alpha
    Compression mode : Lossless
    Title : Basque (Spain)
    Language : Basque
    Default : No
    Forced : No

    Text #4
    ID : 6
    Format : ASS
    Codec ID : S_TEXT/ASS
    Codec ID/Info : Advanced Sub Station Alpha
    Compression mode : Lossless
    Title : Catalan (Spain)
    Language : Catalan
    Default : No
    Forced : No

    Text #5
    ID : 7
    Format : ASS
    Codec ID : S_TEXT/ASS
    Codec ID/Info : Advanced Sub Station Alpha
    Compression mode : Lossless
    Title : Chinese Simplified
    Language : Chinese
    Default : No
    Forced : No

    Text #6
    ID : 8
    Format : ASS
    Codec ID : S_TEXT/ASS
    Codec ID/Info : Advanced Sub Station Alpha
    Compression mode : Lossless
    Title : Chinese Traditional
    Language : Chinese
    Default : No
    Forced : No

    Text #7
    ID : 9
    Format : ASS
    Codec ID : S_TEXT/ASS
    Codec ID/Info : Advanced Sub Station Alpha
    Compression mode : Lossless
    Title : Czech (Czechia)
    Language : Czech
    Default : No
    Forced : No

    Text #8
    ID : 10
    Format : ASS
    Codec ID : S_TEXT/ASS
    Codec ID/Info : Advanced Sub Station Alpha
    Compression mode : Lossless
    Title : Danish
    Language : Danish
    Default : No
    Forced : No

    Text #9
    ID : 11
    Format : ASS
    Codec ID : S_TEXT/ASS
    Codec ID/Info : Advanced Sub Station Alpha
    Compression mode : Lossless
    Title : Dutch
    Language : Dutch
    Default : No
    Forced : No

    Text #10
    ID : 12
    Format : ASS
    Codec ID : S_TEXT/ASS
    Codec ID/Info : Advanced Sub Station Alpha
    Compression mode : Lossless
    Title : European Spanish [SDH]
    Language : Spanish
    Default : No
    Forced : No

    Text #11
    ID : 13
    Format : ASS
    Codec ID : S_TEXT/ASS
    Codec ID/Info : Advanced Sub Station Alpha
    Compression mode : Lossless
    Title : Filipino
    Language : fil
    Default : No
    Forced : No

    Text #12
    ID : 14
    Format : ASS
    Codec ID : S_TEXT/ASS
    Codec ID/Info : Advanced Sub Station Alpha
    Compression mode : Lossless
    Title : Finnish
    Language : Finnish
    Default : No
    Forced : No

    Text #13
    ID : 15
    Format : ASS
    Codec ID : S_TEXT/ASS
    Codec ID/Info : Advanced Sub Station Alpha
    Compression mode : Lossless
    Title : French
    Language : French
    Default : No
    Forced : No

    Text #14
    ID : 16
    Format : ASS
    Codec ID : S_TEXT/ASS
    Codec ID/Info : Advanced Sub Station Alpha
    Compression mode : Lossless
    Title : Galician (Spain)
    Language : Galician
    Default : No
    Forced : No

    Text #15
    ID : 17
    Format : ASS
    Codec ID : S_TEXT/ASS
    Codec ID/Info : Advanced Sub Station Alpha
    Compression mode : Lossless
    Title : German
    Language : German
    Default : No
    Forced : No

    Text #16
    ID : 18
    Format : ASS
    Codec ID : S_TEXT/ASS
    Codec ID/Info : Advanced Sub Station Alpha
    Compression mode : Lossless
    Title : Greek (Modern)
    Language : Greek
    Default : No
    Forced : No

    Text #17
    ID : 19
    Format : ASS
    Codec ID : S_TEXT/ASS
    Codec ID/Info : Advanced Sub Station Alpha
    Compression mode : Lossless
    Title : Hebrew
    Language : Hebrew
    Default : No
    Forced : No

    Text #18
    ID : 20
    Format : ASS
    Codec ID : S_TEXT/ASS
    Codec ID/Info : Advanced Sub Station Alpha
    Compression mode : Lossless
    Title : Hindi
    Language : Hindi
    Default : No
    Forced : No

    Text #19
    ID : 21
    Format : ASS
    Codec ID : S_TEXT/ASS
    Codec ID/Info : Advanced Sub Station Alpha
    Compression mode : Lossless
    Title : Hungarian
    Language : Hungarian
    Default : No
    Forced : No

    Text #20
    ID : 22
    Format : ASS
    Codec ID : S_TEXT/ASS
    Codec ID/Info : Advanced Sub Station Alpha
    Compression mode : Lossless
    Title : Indonesian
    Language : Indonesian
    Default : No
    Forced : No

    Text #21
    ID : 23
    Format : ASS
    Codec ID : S_TEXT/ASS
    Codec ID/Info : Advanced Sub Station Alpha
    Compression mode : Lossless
    Title : Italian
    Language : Italian
    Default : No
    Forced : No

    Text #22
    ID : 24
    Format : ASS
    Codec ID : S_TEXT/ASS
    Codec ID/Info : Advanced Sub Station Alpha
    Compression mode : Lossless
    Title : Japanese
    Language : Japanese
    Default : No
    Forced : No

    Text #23
    ID : 25
    Format : ASS
    Codec ID : S_TEXT/ASS
    Codec ID/Info : Advanced Sub Station Alpha
    Compression mode : Lossless
    Title : Korean
    Language : Korean
    Default : No
    Forced : No

    Text #24
    ID : 26
    Format : ASS
    Codec ID : S_TEXT/ASS
    Codec ID/Info : Advanced Sub Station Alpha
    Compression mode : Lossless
    Title : Malay
    Language : Malay
    Default : No
    Forced : No

    Text #25
    ID : 27
    Format : ASS
    Codec ID : S_TEXT/ASS
    Codec ID/Info : Advanced Sub Station Alpha
    Compression mode : Lossless
    Title : Norwegian
    Language : Norwegian
    Default : No
    Forced : No

    Text #26
    ID : 28
    Format : ASS
    Codec ID : S_TEXT/ASS
    Codec ID/Info : Advanced Sub Station Alpha
    Compression mode : Lossless
    Title : Polish
    Language : Polish
    Default : No
    Forced : No

    Text #27
    ID : 29
    Format : ASS
    Codec ID : S_TEXT/ASS
    Codec ID/Info : Advanced Sub Station Alpha
    Compression mode : Lossless
    Title : Portuguese
    Language : Portuguese
    Default : No
    Forced : No

    Text #28
    ID : 30
    Format : ASS
    Codec ID : S_TEXT/ASS
    Codec ID/Info : Advanced Sub Station Alpha
    Compression mode : Lossless
    Title : Portuguese Brazilian
    Language : Portuguese
    Default : No
    Forced : No

    Text #29
    ID : 31
    Format : ASS
    Codec ID : S_TEXT/ASS
    Codec ID/Info : Advanced Sub Station Alpha
    Compression mode : Lossless
    Title : Romanian (Romania)
    Language : Romanian
    Default : No
    Forced : No

    Text #30
    ID : 32
    Format : ASS
    Codec ID : S_TEXT/ASS
    Codec ID/Info : Advanced Sub Station Alpha
    Compression mode : Lossless
    Title : Russian
    Language : Russian
    Default : No
    Forced : No

    Text #31
    ID : 33
    Format : ASS
    Codec ID : S_TEXT/ASS
    Codec ID/Info : Advanced Sub Station Alpha
    Compression mode : Lossless
    Title : Swedish
    Language : Swedish
    Default : No
    Forced : No

    Text #32
    ID : 34
    Format : ASS
    Codec ID : S_TEXT/ASS
    Codec ID/Info : Advanced Sub Station Alpha
    Compression mode : Lossless
    Title : Tamil
    Language : Tamil
    Default : No
    Forced : No

    Text #33
    ID : 35
    Format : ASS
    Codec ID : S_TEXT/ASS
    Codec ID/Info : Advanced Sub Station Alpha
    Compression mode : Lossless
    Title : Telugu
    Language : Telugu
    Default : No
    Forced : No

    Text #34
    ID : 36
    Format : ASS
    Codec ID : S_TEXT/ASS
    Codec ID/Info : Advanced Sub Station Alpha
    Compression mode : Lossless
    Title : Thai
    Language : Thai
    Default : No
    Forced : No

    Text #35
    ID : 37
    Format : ASS
    Codec ID : S_TEXT/ASS
    Codec ID/Info : Advanced Sub Station Alpha
    Compression mode : Lossless
    Title : Turkish
    Language : Turkish
    Default : No
    Forced : No

    Text #36
    ID : 38
    Format : ASS
    Codec ID : S_TEXT/ASS
    Codec ID/Info : Advanced Sub Station Alpha
    Compression mode : Lossless
    Title : Ukrainian (Ukraine)
    Language : Ukrainian
    Default : No
    Forced : No

    Text #37
    ID : 39
    Format : ASS
    Codec ID : S_TEXT/ASS
    Codec ID/Info : Advanced Sub Station Alpha
    Compression mode : Lossless
    Title : Vietnamese (Vietnam)
    Language : Vietnamese
    Default : No
    Forced : No

觉醒4k.Awareness.2023.2160p.WEB.H265-4k电影下载

觉醒4k.Awareness.2023.2160p.WEB.H265【简繁中字】【12.29 GB】
磁力链免费下载:
magnet:?xt=urn:btih:ec8269860dd4ca4e2d45f8da4cf073ddd6b13096&dn

觉醒中文字幕 感谢K友@shine288分享的字幕
https://www.4ksj.com/thread-79594-1-1.html

精彩评论1

水沟MOSS 发表于 2023-10-11 22:58:15
看到片才知道是西班牙语音啊!!最近才初学西班牙语...
回复 支持 反对

使用道具 举报

您需要登录后才可以回帖 登录 | 立即注册

本版积分规则

推荐影视全站推荐影视下载
  • 6.1

    4 天前/4K(3840x2160)

    哈丽特4k

    Disc Title: HARRIET Disc Label: Harriet.2019.2160p.UHD.Blu-ray.HEVC.TrueHD.Atmos.7.1 Disc Size: 57,624,940,050 bytes Protection: AACS2 Playlist: 00000.MPLS Size: 52,566,663,168 bytes Length: 2:05:07.082 Total Bitrate: 56.02 Mbps Video: MPEG-H HEVC Video / 46999 kbps / 2160p / 23.976 fps / 16:9 / Main 10 @ Level 5.1 @ High / 10 bits / HDR10 / BT.2020 Audio: English / Dolby TrueHD/Atmos Audio / 7.1 / 48 kHz / 3331 kbps / 16-bit (AC3 Embedded: 5.1 / 48 kHz / 448 kbps / DN -27dB) Audio: French / Dolby Digital Audio / 5.1 / 48 kHz / 640 kbps / DN -27dB Audio: Spanish / Dolby Digital Plus Audio / 7.1 / 48 kHz / 768 kbps / DN -27dB (AC3 Embedded: 5.1 / 48 kHz / 448 kbps / DN -27dB) Audio: English / Dolby Digital Audio / 2.0 / 48 kHz / 192 kbps / DN -27dB Subtitle: English / 34.163 kbps Subtitle: French / 30.708 kbps Subtitle: Spanish / 28.135 kbps Subtitle: French / 0.850 kbps Subtitle: Spanish / 1.099 kbps

    哈丽特4k(2019年)
    6.1
    ①网盘资源信息:
    剧情简介:乔·阿尔文、小莱斯利·奥多姆将加盟传记影片[哈丽特],先前宣布加盟的卡司包括辛西娅·埃里沃、克拉克·彼得斯等。塞斯·曼恩(《国土安全》)执导。哈丽特·塔布曼生于1822年,原本是生活在马里兰州的黑奴,1849年她逃到北方,不久后加入到帮助奴隶逃亡的美国“地下铁路”中,成为最活跃的领袖之一,多次回到家乡带领其他奴隶逃往北方。南北战争爆发后,塔布曼积极参战,成为北军中为数不多的女性,战后她投身了争取妇女权益的运动。哈丽特也是首位登上美元的女性。影片将于下月在美国弗吉尼亚州开拍。
    7.0

    5 天前/4K(3840x2160)

    饥饿游戏:鸣鸟与蛇之歌4K

    Video #1 ID: 4113 (0x1011) Menu ID: 1 (0x1) Format: HEVC Format/Info: High Efficiency Video Coding Format profile: Main 10@L5.1@High HDR format: SMPTE ST 2086, HDR10 compatible Codec ID: 36 Duration: 2h 37m Width: 3840 pixels Height: 2160 pixels Display aspect ratio: 16:9 Frame rate: 23.976 (24000/1001) FPS Color space: YUV Chroma subsampling: 4:2:0 (Type 2) Bit depth: 10 bits Color range: Limited Color primaries: BT.2020 Transfer characteristics: PQ Matrix coefficients: BT.2020 non-constant Mastering display color primaries: Display P3 Mastering display luminance: min: 0.0001 cd/m2, max: 1000 cd/m2 Maximum Content Light Level: 999 cd/m2 Maximum Frame-Average Light Level: 122 cd/m2 Video #2 (Dolby Vision) ID: 4117 (0x1015) Menu ID: 1 (0x1) Format: HEVC Format/Info: High Efficiency Video Coding Format profile: Main 10@L5.1@High HDR format: SMPTE ST 2086, HDR10 compatible Codec ID: 36 Duration: 2h 37m Width: 1920 pixels Height: 1080 pixels Display aspect ratio: 16:9 Frame rate: 23.976 (24000/1001) FPS Color space: YUV Chroma subsampling: 4:2:0 (Type 2) Bit depth: 10 bits Color range: Limited Color primaries: BT.2020 Transfer characteristics: PQ Matrix coefficients: BT.2020 non-constant Mastering display color primaries: Display P3 Mastering display luminance: min: 0.0001 cd/m2, max: 1000 cd/m2 Audio #1 ID: 4352 (0x1100) Menu ID: 1 (0x1) Format: MLP FBA AC-3 16-ch Format/Info: Meridian Lossless Packing FBA with 16-channel presentation Commercial name: Dolby TrueHD with Dolby Atmos Muxing mode: Stream extension Codec ID: 131 Duration: 2h 37m Bit rate mode: Variable Bit rate: 640 kb/s Maximum bit rate: 7395 kb/s Channel(s): 8 channels Channel layout: L R C LFE Ls Rs Lb Rb Sampling rate: 48.0 kHz Frame rate: 31.250 FPS (1536 SPF) Compression mode: Lossless Stream size: 719 MiB (1%) Service kind: Complete Main Number of dynamic objects: 11 Bed channel count: 1 channel Bed channel configuration: LFE

    ①网盘资源信息:
    剧情简介:8岁的科里奥兰纳斯·斯诺(汤姆·布莱斯 饰)被选为第十届饥饿游戏的导师,与来自第十二区的贫困女孩露西·格蕾·贝尔德(瑞秋·齐格勒 饰)成为了“生死相依”的命运共同体。竞技场上,这是一场关乎自由、食物,甚至是尊重与权利的生死角逐;竞技场外,不忍与善意使斯诺决定不顾一切帮助露西在这场游戏中赢得胜利......当活下去的欲望与所遵守的规则背道而驰,命运的齿轮紧抓入自己手中时,他又该如何抉择?   影片改编自苏珊·柯林斯的同名小说。
    6.2

    5 天前/4K(3840x2160)

    金手指4k

    General............: The.Goldfinger.2023.2160p.HQ.WEB-DL.H265.60fps.DDP5.1.2Audio-4ksj Duration...........: 02:05:47.031 (HH:MM:SS:FF) RELEASE.SIZE.......: 23.6 GiB VIDEO.CODEC........: HEVC Main 10@L5.1@Main FRAMERATE..........: 60.000 fps VIDEO.BITRATE......: 24.9 Mb/s RESOLUTION.........: 3840 x 1608 ASPECT.RATIO.......: 2.40:1 Audio..............: E-AC-3 6 channels 448 kb/s Chinese Cantonese [DDP5.1] Audio..............: E-AC-3 6 channels 448 kb/s Chinese Mandarin [DDP5.1] Audio..............: E-AC-3 2 channels 256 kb/s Chinese Cantonese [DDP2.0] Audio..............: E-AC-3 2 channels 256 kb/s Chinese Mandarin [DDP2.0] Audio..............: AAC 2 channels 256 kb/s Chinese Cantonese [AAC2.0] Audio..............: AAC 2 channels 256 kb/s Chinese Mandarin [AAC2.0]

    金手指4k(2023年)
    6.2
    ①网盘资源信息:
    剧情简介:用100元的投入换来百亿奢靡人生,看穷小子不择手段颠覆规则将财富和权势玩弄于股掌之中!上市公司嘉文集团在短短几年间从默默无名到风生水起,再到没落清盘,市值蒸发超过一百亿。幕后老板程一言(梁朝伟 饰)也从万众瞩目的股民偶像变成人人喊打的过街老鼠。高级调查主任刘启源(刘德华 饰)长达十五年锲而不舍地搜证和跨境调查,消耗超过两亿诉讼费,竟发现局中有局案中有案,牵涉数条人命并波及香港整个上流社会,究竟谁在幕后?谁能逃脱?谁会出局?
    7.9

    7 天前/4K(3840x2160)

    西雅图未眠夜4k

    Video: MPEG-H HEVC Video / 77338 kbps / 2160p / 23.976 fps / 16:9 / Main 10 @ Level 5.1 @ High / 4:2:0 / 10 bits / 2000nits / HDR10 / BT.2020 Video: * MPEG-H HEVC Video / 2100 kbps / 1080p / 23.976 fps / 16:9 / Main 10 @ Level 5.1 @ High / 4:2:0 / 10 bits / 2000nits / Dolby Vision FEL / BT.2020 Audio: English / Dolby TrueHD/Atmos Audio / 7.1+11 objects / 48 kHz / 3948 kbps / 24-bit (AC3 Core: 5.1 / 48 kHz / 640 kbps) Audio: English / DTS-HD Master Audio / 5.1 / 48 kHz / 2148 kbps / 16-bit (DTS Core: 5.1 / 48 kHz / 1509 kbps / 16-bit) Audio: English / DTS-HD Master Audio / 2.0 / 48 kHz / 1555 kbps / 16-bit (DTS Core: 2.0 / 48 kHz / 1509 kbps / 16-bit) Audio: French / DTS-HD Master Audio / 2.0 / 48 kHz / 1555 kbps / 16-bit (DTS Core: 2.0 / 48 kHz / 1509 kbps / 16-bit) Audio: French / DTS-HD Master Audio / 2.0 / 48 kHz / 1556 kbps / 16-bit (DTS Core: 2.0 / 48 kHz / 1509 kbps / 16-bit) Audio: German / DTS-HD Master Audio / 2.0 / 48 kHz / 1556 kbps / 16-bit (DTS Core: 2.0 / 48 kHz / 1509 kbps / 16-bit) Audio: Italian / DTS-HD Master Audio / 2.0 / 48 kHz / 1555 kbps / 16-bit (DTS Core: 2.0 / 48 kHz / 1509 kbps / 16-bit) Audio: Korean / DTS-HD Master Audio / 2.0 / 48 kHz / 1561 kbps / 16-bit (DTS Core: 2.0 / 48 kHz / 1509 kbps / 16-bit) Audio: Spanish / DTS-HD Master Audio / 2.0 / 48 kHz / 1557 kbps / 16-bit (DTS Core: 2.0 / 48 kHz / 1509 kbps / 16-bit) Audio: Spanish / Dolby Digital Audio / 2.0 / 48 kHz / 192 kbps / Dolby Surround Audio: Thai / DTS-HD Master Audio / 2.0 / 48 kHz / 1558 kbps / 16-bit (DTS Core: 2.0 / 48 kHz / 1509 kbps / 16-bit) Audio: Turkish / DTS-HD Master Audio / 2.0 / 48 kHz / 1559 kbps / 16-bit (DTS Core: 2.0 / 48 kHz / 1509 kbps / 16-bit) Subtitle: English / 44.139 kbps Subtitle: English / 33.446 kbps Subtitle: English / 44.151 kbps Subtitle: English / 33.461 kbps Subtitle: Arabic / 17.208 kbps Subtitle: Chinese / 24.02 kbps Subtitle: Chinese / 29.461 kbps Subtitle: Danish / 25.709 kbps Subtitle: Dutch / 26.198 kbps Subtitle: Finnish / 27.629 kbps Subtitle: French / 28.433 kbps Subtitle: German / 28.544 kbps Subtitle: Italian / 26.934 kbps Subtitle: Korean / 21.502 kbps Subtitle: Norwegian / 25.264 kbps Subtitle: Portuguese / 26.138 kbps Subtitle: Spanish / 25.553 kbps Subtitle: Spanish / 31.147 kbps Subtitle: Swedish / 22.422 kbps Subtitle: Thai / 31.84 kbps Subtitle: Turkish / 29.039 kbps Subtitle: French / 0.638 kbps

    西雅图未眠夜4k(90年代)
    7.9
    ①网盘资源信息:
    剧情简介:自从妻子去世后,萨姆(汤姆·汉克斯 Tom Hanks饰)就相信自己此生的爱已经走到了尽头,不会再有新的恋情走进心中,他在西雅图和儿子乔纳一起平静的生活。而乔纳,却一直希望爸爸能够开始新的婚姻,重获生活的阳光。   抱着这样的想法,乔纳在圣诞夜打电话到电台的情感热线。就这样,萨姆的经历在此夜传遍了各个角落,很多人在倾听他的故事,其中包括安妮(梅格·瑞安 Meg Ryan饰)——一个住在东部的女记者。她善良,温柔,有一个知心的好友,和一个即将结婚的男友。然而,幸福的生活就被这个电话彻底打破了。她的内心有一种冲动,让她一步步地接近这个远在西部的男人。   然而,一次次辗转的错过让萨姆和安妮迟迟不能会面。屡次在缘份的天空下失诸交臂的二人,一直为爱而奔波,等待一个遇见的机缘。
    6.7

    4 天前/4K(3840x2160)

    天堂门票4k

    Disc Title: TICKET_TO_PARADISE Disc Label: Ticket.to.Paradise.2022.2160p.UHD.Blu-ray.HEVC.TrueHD.Atmos.7.1-4ksj Disc Size: 54,262,655,363 bytes Protection: AACS2 Playlist: 00000.MPLS Size: 51,517,728,768 bytes Length: 1:44:01.818 Total Bitrate: 66.03 Mbps Video: MPEG-H HEVC Video / 56999 kbps / 2160p / 23.976 fps / 16:9 / Main 10 @ Level 5.1 @ High / 10 bits / HDR10 / BT.2020 Audio: English / Dolby TrueHD/Atmos Audio / 7.1 / 48 kHz / 3215 kbps / 16-bit (AC3 Embedded: 5.1 / 48 kHz / 448 kbps / DN -27dB) Audio: French / Dolby Digital Audio / 5.1 / 48 kHz / 640 kbps / DN -27dB Audio: Spanish / Dolby Digital Plus Audio / 7.1 / 48 kHz / 768 kbps / DN -27dB (AC3 Embedded: 5.1 / 48 kHz / 448 kbps / DN -27dB) Subtitle: English / 50.073 kbps Subtitle: French / 38.737 kbps Subtitle: Spanish / 37.102 kbps Subtitle: French / 0.748 kbps Subtitle: Spanish / 0.460 kbps

    天堂门票4k(2022年)
    6.7
    ①网盘资源信息:
    剧情简介:乔治·克鲁尼、朱莉娅·罗伯茨大银幕再度合体,饰演一对早已离婚的夫妻被迫携手合作,试图阻止他们被爱冲昏了头的女儿犯下他们曾经犯过的错误。本片是一部关于第二次机会带来的甜美惊喜的爱情喜剧片。
2015-2023 www.4ksj.com  4K世界 |网站地图
京ICP证160991号 京公网安备11010802015683号 Copyright ©2023 All Rights Reserved.
    *本站提供的所有电影资源均来自互联网,仅限交流使用,请在下载后的2小时内删除,所有版权皆属原公司所有,如果认为本站侵犯了您的版权,请告知,我们会立即删除。