注册/登陆
游客您好
第三方账号登陆
完美爱人生4k.The.Perfect.Find.2023.2160p.电影下载
[复制链接]
2023-10-13 发布
  • 4K大师玩家
  • 20
  • 3381
静待花开 发表于 2023-10-13 10:39:18 |阅读模式 打印 上一主题 下一主题

完美爱人生4k
2023年(豆瓣:5.1)
  • 电影声道:5.1声道 
  • 电影语言:中文简体   中文繁体   英文字幕   
  • 画质标准 HDR 
  • 资源版本 WEB-DL 4K   
  • 帧数/FPS:24.000 Fps
    发布排行: 第部4K原盘
    导  演:努马·佩里尔
    制片国家:美国 
    电影分类:剧情 喜剧 爱情片 
    分 辨 率:4K(3840x2160)
简介一名时尚编辑的在派对上亲吻了一个年轻而有魅力的陌生人,事后却得知此人不仅是她的新同事,还是她老板的儿子,这让她职场的东山再起之路遭遇挫折。
  • 网盘①


    提取码①
    无链接, 或无权限
    网盘②


    访问码②
    中文字幕


    BT种子 / 磁力链下载
  • 电影信息INFO
    Video
    ID : 1
    Format : HEVC
    Format/Info : High Efficiency Video Coding
    Format profile : Main 10@L5@Main
    Codec ID : V_MPEGH/ISO/HEVC
    Duration : 1 h 39 min
    Bit rate : 19.0 Mb/s
    Width : 3 840 pixels
    Height : 2 160 pixels
    Display aspect ratio : 16:9
    Frame rate mode : Constant
    Frame rate : 24.000 FPS
    Color space : YUV
    Chroma subsampling : 4:2:0
    Bit depth : 10 bits
    Bits/(Pixel*Frame) : 0.095
    Stream size : 13.2 GiB (97%)
    Default : Yes
    Forced : No
    Color range : Limited
    Color primaries : BT.709
    Transfer characteristics : BT.709
    Matrix coefficients : BT.709

    Audio
    ID : 2
    Format : E-AC-3
    Format/Info : Enhanced AC-3
    Commercial name : Dolby Digital Plus
    Codec ID : A_EAC3
    Duration : 1 h 39 min
    Bit rate mode : Constant
    Bit rate : 640 kb/s
    Channel(s) : 6 channels
    Channel layout : L R C LFE Ls Rs
    Sampling rate : 48.0 kHz
    Frame rate : 31.250 FPS (1536 SPF)
    Compression mode : Lossy
    Stream size : 456 MiB (3%)
    Title : English [Dolby Digital Plus 5.1]
    Language : English
    Service kind : Complete Main
    Default : Yes
    Forced : No

    Text #1
    ID : 3
    Format : UTF-8
    Codec ID : S_TEXT/UTF8
    Codec ID/Info : UTF-8 Plain Text
    Duration : 1 h 36 min
    Bit rate : 113 b/s
    Frame rate : 0.246 FPS
    Count of elements : 1432
    Stream size : 80.7 KiB (0%)
    Title : العربية
    Language : Arabic
    Default : No
    Forced : No

    Text #2
    ID : 4
    Format : UTF-8
    Codec ID : S_TEXT/UTF8
    Codec ID/Info : UTF-8 Plain Text
    Duration : 1 h 36 min
    Bit rate : 58 b/s
    Frame rate : 0.250 FPS
    Count of elements : 1448
    Stream size : 41.5 KiB (0%)
    Title : Català
    Language : Catalan
    Default : No
    Forced : No

    Text #3
    ID : 5
    Format : UTF-8
    Codec ID : S_TEXT/UTF8
    Codec ID/Info : UTF-8 Plain Text
    Duration : 1 h 36 min
    Bit rate : 58 b/s
    Frame rate : 0.243 FPS
    Count of elements : 1415
    Stream size : 41.8 KiB (0%)
    Title : Čeština
    Language : Czech
    Default : No
    Forced : No

    Text #4
    ID : 6
    Format : UTF-8
    Codec ID : S_TEXT/UTF8
    Codec ID/Info : UTF-8 Plain Text
    Duration : 1 h 36 min
    Bit rate : 61 b/s
    Frame rate : 0.237 FPS
    Count of elements : 1371
    Stream size : 43.3 KiB (0%)
    Title : Dansk
    Language : Danish
    Default : No
    Forced : No

    Text #5
    ID : 7
    Format : UTF-8
    Codec ID : S_TEXT/UTF8
    Codec ID/Info : UTF-8 Plain Text
    Duration : 1 h 36 min
    Bit rate : 63 b/s
    Frame rate : 0.240 FPS
    Count of elements : 1386
    Stream size : 45.0 KiB (0%)
    Title : Deutsch
    Language : German
    Default : No
    Forced : No

    Text #6
    ID : 8
    Format : UTF-8
    Codec ID : S_TEXT/UTF8
    Codec ID/Info : UTF-8 Plain Text
    Duration : 1 h 36 min
    Bit rate : 106 b/s
    Frame rate : 0.238 FPS
    Count of elements : 1384
    Stream size : 75.7 KiB (0%)
    Title : Ελληνικά
    Language : Greek
    Default : No
    Forced : No

    Text #7
    ID : 9
    Format : UTF-8
    Codec ID : S_TEXT/UTF8
    Codec ID/Info : UTF-8 Plain Text
    Duration : 1 h 32 min
    Bit rate : 92 b/s
    Frame rate : 0.335 FPS
    Count of elements : 1867
    Stream size : 63.1 KiB (0%)
    Title : English [SDH]
    Language : English
    Default : No
    Forced : No

    Text #8
    ID : 10
    Format : UTF-8
    Codec ID : S_TEXT/UTF8
    Codec ID/Info : UTF-8 Plain Text
    Duration : 1 h 32 min
    Bit rate : 71 b/s
    Frame rate : 0.272 FPS
    Count of elements : 1508
    Stream size : 48.3 KiB (0%)
    Title : Español
    Language : Spanish
    Default : No
    Forced : No

    Text #9
    ID : 11
    Format : UTF-8
    Codec ID : S_TEXT/UTF8
    Codec ID/Info : UTF-8 Plain Text
    Duration : 1 h 36 min
    Bit rate : 63 b/s
    Frame rate : 0.268 FPS
    Count of elements : 1558
    Stream size : 44.7 KiB (0%)
    Title : Español (Europa)
    Language : Spanish
    Default : No
    Forced : No

    Text #10
    ID : 12
    Format : UTF-8
    Codec ID : S_TEXT/UTF8
    Codec ID/Info : UTF-8 Plain Text
    Duration : 1 h 36 min
    Bit rate : 60 b/s
    Frame rate : 0.248 FPS
    Count of elements : 1433
    Stream size : 42.8 KiB (0%)
    Title : Euskara
    Language : Basque
    Default : No
    Forced : No

    Text #11
    ID : 13
    Format : UTF-8
    Codec ID : S_TEXT/UTF8
    Codec ID/Info : UTF-8 Plain Text
    Duration : 1 h 36 min
    Bit rate : 50 b/s
    Frame rate : 0.246 FPS
    Count of elements : 1424
    Stream size : 35.8 KiB (0%)
    Title : Suomi
    Language : Finnish
    Default : No
    Forced : No

    Text #12
    ID : 14
    Format : UTF-8
    Codec ID : S_TEXT/UTF8
    Codec ID/Info : UTF-8 Plain Text
    Duration : 1 h 32 min
    Bit rate : 61 b/s
    Frame rate : 0.262 FPS
    Count of elements : 1448
    Stream size : 41.2 KiB (0%)
    Title : Suomi (Israel)
    Language : Finnish
    Default : No
    Forced : No

    Text #13
    ID : 15
    Format : UTF-8
    Codec ID : S_TEXT/UTF8
    Codec ID/Info : UTF-8 Plain Text
    Duration : 1 h 36 min
    Bit rate : 62 b/s
    Frame rate : 0.249 FPS
    Count of elements : 1445
    Stream size : 44.1 KiB (0%)
    Title : Français
    Language : French
    Default : No
    Forced : No

    Text #14
    ID : 16
    Format : UTF-8
    Codec ID : S_TEXT/UTF8
    Codec ID/Info : UTF-8 Plain Text
    Duration : 1 h 36 min
    Bit rate : 58 b/s
    Frame rate : 0.251 FPS
    Count of elements : 1454
    Stream size : 41.3 KiB (0%)
    Title : Galego
    Language : Galician
    Default : No
    Forced : No

    Text #15
    ID : 17
    Format : UTF-8
    Codec ID : S_TEXT/UTF8
    Codec ID/Info : UTF-8 Plain Text
    Duration : 1 h 36 min
    Bit rate : 111 b/s
    Frame rate : 0.258 FPS
    Count of elements : 1497
    Stream size : 78.8 KiB (0%)
    Title : עברית
    Language : Hebrew
    Default : No
    Forced : No

    Text #16
    ID : 18
    Format : UTF-8
    Codec ID : S_TEXT/UTF8
    Codec ID/Info : UTF-8 Plain Text
    Duration : 1 h 36 min
    Bit rate : 57 b/s
    Frame rate : 0.243 FPS
    Count of elements : 1411
    Stream size : 40.6 KiB (0%)
    Title : Hrvatski
    Language : Croatian
    Default : No
    Forced : No

    Text #17
    ID : 19
    Format : UTF-8
    Codec ID : S_TEXT/UTF8
    Codec ID/Info : UTF-8 Plain Text
    Duration : 1 h 36 min
    Bit rate : 60 b/s
    Frame rate : 0.251 FPS
    Count of elements : 1459
    Stream size : 42.6 KiB (0%)
    Title : Magyar
    Language : Hungarian
    Default : No
    Forced : No

    Text #18
    ID : 20
    Format : UTF-8
    Codec ID : S_TEXT/UTF8
    Codec ID/Info : UTF-8 Plain Text
    Duration : 1 h 36 min
    Bit rate : 59 b/s
    Frame rate : 0.250 FPS
    Count of elements : 1443
    Stream size : 42.3 KiB (0%)
    Title : Bahasa Indonesia
    Language : Indonesian
    Default : No
    Forced : No

    Text #19
    ID : 21
    Format : UTF-8
    Codec ID : S_TEXT/UTF8
    Codec ID/Info : UTF-8 Plain Text
    Duration : 1 h 36 min
    Bit rate : 62 b/s
    Frame rate : 0.239 FPS
    Count of elements : 1391
    Stream size : 44.4 KiB (0%)
    Title : Italiano
    Language : Italian
    Default : No
    Forced : No

    Text #20
    ID : 22
    Format : UTF-8
    Codec ID : S_TEXT/UTF8
    Codec ID/Info : UTF-8 Plain Text
    Duration : 1 h 36 min
    Bit rate : 58 b/s
    Frame rate : 0.278 FPS
    Count of elements : 1614
    Stream size : 41.4 KiB (0%)
    Title : 日本語
    Language : Japanese
    Default : No
    Forced : No

    Text #21
    ID : 23
    Format : UTF-8
    Codec ID : S_TEXT/UTF8
    Codec ID/Info : UTF-8 Plain Text
    Duration : 1 h 36 min
    Bit rate : 71 b/s
    Frame rate : 0.255 FPS
    Count of elements : 1483
    Stream size : 50.6 KiB (0%)
    Title : 한국어
    Language : Korean
    Default : No
    Forced : No

    Text #22
    ID : 24
    Format : UTF-8
    Codec ID : S_TEXT/UTF8
    Codec ID/Info : UTF-8 Plain Text
    Duration : 1 h 36 min
    Bit rate : 58 b/s
    Frame rate : 0.249 FPS
    Count of elements : 1441
    Stream size : 41.4 KiB (0%)
    Title : Bahasa Malaysia
    Language : Malay
    Default : No
    Forced : No

    Text #23
    ID : 25
    Format : UTF-8
    Codec ID : S_TEXT/UTF8
    Codec ID/Info : UTF-8 Plain Text
    Duration : 1 h 36 min
    Bit rate : 58 b/s
    Frame rate : 0.215 FPS
    Count of elements : 1244
    Stream size : 40.9 KiB (0%)
    Title : Norsk Bokmål
    Language : Norwegian Bokmal
    Default : No
    Forced : No

    Text #24
    ID : 26
    Format : UTF-8
    Codec ID : S_TEXT/UTF8
    Codec ID/Info : UTF-8 Plain Text
    Duration : 1 h 36 min
    Bit rate : 61 b/s
    Frame rate : 0.207 FPS
    Count of elements : 1201
    Stream size : 43.3 KiB (0%)
    Title : Nederlands
    Language : Dutch
    Default : No
    Forced : No

    Text #25
    ID : 27
    Format : UTF-8
    Codec ID : S_TEXT/UTF8
    Codec ID/Info : UTF-8 Plain Text
    Duration : 1 h 36 min
    Bit rate : 60 b/s
    Frame rate : 0.255 FPS
    Count of elements : 1483
    Stream size : 42.8 KiB (0%)
    Title : Polski
    Language : Polish
    Default : No
    Forced : No

    Text #26
    ID : 28
    Format : UTF-8
    Codec ID : S_TEXT/UTF8
    Codec ID/Info : UTF-8 Plain Text
    Duration : 1 h 36 min
    Bit rate : 61 b/s
    Frame rate : 0.248 FPS
    Count of elements : 1440
    Stream size : 43.8 KiB (0%)
    Title : Português
    Language : Portuguese
    Default : No
    Forced : No

    Text #27
    ID : 29
    Format : UTF-8
    Codec ID : S_TEXT/UTF8
    Codec ID/Info : UTF-8 Plain Text
    Duration : 1 h 32 min
    Bit rate : 74 b/s
    Frame rate : 0.272 FPS
    Count of elements : 1508
    Stream size : 50.5 KiB (0%)
    Title : Português (Brasil)
    Language : Portuguese
    Default : No
    Forced : No

    Text #28
    ID : 30
    Format : UTF-8
    Codec ID : S_TEXT/UTF8
    Codec ID/Info : UTF-8 Plain Text
    Duration : 1 h 36 min
    Bit rate : 59 b/s
    Frame rate : 0.237 FPS
    Count of elements : 1376
    Stream size : 42.0 KiB (0%)
    Title : Romană
    Language : Romanian
    Default : No
    Forced : No

    Text #29
    ID : 31
    Format : UTF-8
    Codec ID : S_TEXT/UTF8
    Codec ID/Info : UTF-8 Plain Text
    Duration : 1 h 36 min
    Bit rate : 104 b/s
    Frame rate : 0.251 FPS
    Count of elements : 1460
    Stream size : 74.5 KiB (0%)
    Title : Русский
    Language : Russian
    Default : No
    Forced : No

    Text #30
    ID : 32
    Format : UTF-8
    Codec ID : S_TEXT/UTF8
    Codec ID/Info : UTF-8 Plain Text
    Duration : 1 h 36 min
    Bit rate : 60 b/s
    Frame rate : 0.236 FPS
    Count of elements : 1365
    Stream size : 42.8 KiB (0%)
    Title : Svenska
    Language : Swedish
    Default : No
    Forced : No

    Text #31
    ID : 33
    Format : UTF-8
    Codec ID : S_TEXT/UTF8
    Codec ID/Info : UTF-8 Plain Text
    Duration : 1 h 36 min
    Bit rate : 154 b/s
    Frame rate : 0.252 FPS
    Count of elements : 1466
    Stream size : 110 KiB (0%)
    Title : ไทย
    Language : Thai
    Default : No
    Forced : No

    Text #32
    ID : 34
    Format : UTF-8
    Codec ID : S_TEXT/UTF8
    Codec ID/Info : UTF-8 Plain Text
    Duration : 1 h 36 min
    Bit rate : 63 b/s
    Frame rate : 0.243 FPS
    Count of elements : 1413
    Stream size : 45.0 KiB (0%)
    Title : Türkçe
    Language : Turkish
    Default : No
    Forced : No

    Text #33
    ID : 35
    Format : UTF-8
    Codec ID : S_TEXT/UTF8
    Codec ID/Info : UTF-8 Plain Text
    Duration : 1 h 36 min
    Bit rate : 101 b/s
    Frame rate : 0.252 FPS
    Count of elements : 1463
    Stream size : 71.7 KiB (0%)
    Title : Українська
    Language : Ukrainian
    Default : No
    Forced : No

    Text #34
    ID : 36
    Format : UTF-8
    Codec ID : S_TEXT/UTF8
    Codec ID/Info : UTF-8 Plain Text
    Duration : 1 h 36 min
    Bit rate : 81 b/s
    Frame rate : 0.231 FPS
    Count of elements : 1342
    Stream size : 58.0 KiB (0%)
    Title : Tiếng Việt
    Language : Vietnamese
    Default : No
    Forced : No

    Text #35
    ID : 37
    Format : UTF-8
    Codec ID : S_TEXT/UTF8
    Codec ID/Info : UTF-8 Plain Text
    Duration : 1 h 36 min
    Bit rate : 61 b/s
    Frame rate : 0.252 FPS
    Count of elements : 1465
    Stream size : 43.4 KiB (0%)
    Title : 中文(简体)
    Language : Chinese
    Default : No
    Forced : No

    Text #36
    ID : 38
    Format : UTF-8
    Codec ID : S_TEXT/UTF8
    Codec ID/Info : UTF-8 Plain Text
    Duration : 1 h 36 min
    Bit rate : 55 b/s
    Frame rate : 0.272 FPS
    Count of elements : 1583
    Stream size : 39.1 KiB (0%)
    Title : 中文 (繁體)
    Language : Chinese
    Default : No
    Forced : No

    Menu
    00:00:00.000 : en:Part 01
    01:33:24.000 : en:Credits

完美爱人生4k.The.Perfect.Find.2023.2160p.NF.WEB-DL.DDP5.1.H.265-4k电影下载

完美爱人生4k.The.Perfect.Find.2023.2160p.NF.WEB-DL.DDP5.1.H.265【简繁中字】【13.62 GB】
磁力链下载:
magnet:?xt=urn:btih:76f12ce9cb7c3114c21bce4b407465cc31506d36&dn

精彩评论1

jsntbus 发表于 2023-10-13 11:52:13
黑片,不看也罢
回复 支持 反对

使用道具 举报

您需要登录后才可以回帖 登录 | 立即注册

本版积分规则

推荐影视全站推荐影视下载
  • 6.7

    7 天前/4K(3840x2160)

    美国骗局4k

    Disc Title: American.Hustle.2013.2160p.USA.UHD.Blu-ray.DV.HDR.HEVC.TrueHD.7.1.Atmos-4ksj Disc Label: AMERICAN_HUSTLE Disc Size: 90,587,158,705 bytes Protection: AACS2 Playlist: 00001.MPLS Size: 85,214,373,888 bytes Length: 02:18:03.274 Total Bitrate: 82.30 Mbps Video: MPEG-H HEVC Video / 66,371 kbps / 2160p / 23.976 fps / 16:9 / Main 10 @ Level 5.1 @ High / 4:2:0 / 10 bits / HDR10 / Limited Range / BT.2020 / PQ / BT.2020 non-constant / Mastering display color primaries: Display P3 / Mastering display luminance: min: 0.0001 cd/m2, max: 1000.0000 cd/m2 / Maximum Content Light Level: 997 cd / m2 / Maximum Frame-Average Light Level: 284 cd/m2 * Video: MPEG-H HEVC Video / 2,101 kbps / 1080p / 23.976 fps / 16:9 / Main 10 @ Level 5.1 @ High / 4:2:0 / 10 bits / Dolby Vision / Limited Range / BT.2020 / PQ / BT.2020 non-constant / Mastering display color primaries: Display P3 / Mastering display luminance: min: 0.0001 cd/m2, max: 1000.0000 cd/m2 Audio: English / Dolby TrueHD/Atmos Audio / 7.1 / 48 kHz / 3630 kbps / 24-bit (AC3 Embedded: 5.1 / 48 kHz / 640 kbps / DN -31dB) Audio: English / DTS-HD Master Audio / 5.1 / 48 kHz / 2160 kbps / 16-bit (DTS Core: 5.1 / 48 kHz / 1509 kbps / 16-bit) Audio: Spanish / DTS-HD Master Audio / 5.1 / 48 kHz / 2177 kbps / 16-bit (DTS Core: 5.1 / 48 kHz / 1509 kbps / 16-bit) Subtitle: English / 56.67 kbps Subtitle: English / 51.51 kbps Subtitle: Spanish / 41.85 kbps

    美国骗局4k(2013年)
    6.7
    ①网盘资源信息:
    剧情简介: 一次偶然中,埃文(克里斯蒂安·贝尔 Christian Bale 饰)遇见了性感美艳的脱衣舞女西德尼(艾米·亚当斯 Amy Adams 饰),趣味相投的两人一见钟情,很快就打得火热。没想到,埃文是一个职业骗子,在他的鼓动和“爱情的力量”影响之下,西德尼毅然入伙,两人联手合作,将“事业”经营的有声有色。   然而,常在河边走哪有不湿鞋,警方早已经盯上了行事作风颇为高调的埃文和西德尼,终于,在一次精密筹划的行动中将两人捉拿归案。经不住FBI探员里奇(布莱德利·库珀 Bradley Cooper 饰)的游说和诱惑,埃文和西德尼决定与其合作,“戴罪立功”。尽管拾起了“老本行”,但这次一次,埃文和西德尼显然站在了正义的那一方,因为他们的对手是那些贪赃枉法的腐败官员。

    4 天前/4K(3840x2160)

    美国内战4k

    File Name............: Civil.War.2024.2160p.iTunes.WEB-DL.DDP.5.1.Atmos.H.265-4ksj File Size............: 15.90 GiB Duration.............: 01:48:45.268 (HH:MM:SS.FFF) Video Bit Rate.......: 20,147 kbps Video Codec..........: HEVC,Main 10@L5 Frame Rate...........: 23.976 fps Resolution...........: 3836 x 2072 Audio#01.............: English (US) 768 kbps CBR 6channels E-AC-3 (ATMOS) Subtitle#01..........: Spanish (Latin America) Latin America

    美国内战4k(2024年)
    ①网盘资源信息:
    剧情简介: 影片讲述美国在不久的将来,爆发了影响全国的内战。在资深战地摄影师李·史密斯(克斯汀·邓斯特 Kirsten Dunst 饰)的带领下,记者们组成了一支强大的专业团队,穿越战线并设法生存下来。他们驱车前往华盛顿特区,希望在总统向名为 "WF"的军事力量投降之前采访总统。
    7.1

    7 天前/4K(3840x2160)

    特技狂人4k

    File Name............: The.Fall.Guy.2024.2160p.iTunes.WEB-DL.DDP.5.1.Atmos.HDR10+.H.265-4ksj File Size............: 22.30 GiB Duration.............: 02:06:53.451 (HH:MM:SS.FFF) Video Bit Rate.......: 24,420 kbps Video Codec..........: HEVC,Main 10@L5 SMPTE ST 2094 App 4, Version 1, HDR10+ Profile B compatible Frame Rate...........: 23.903 fps Resolution...........: 3836 x 1600 Audio#01.............: English (US) 768 kbps CBR 6channels E-AC-3 (ATMOS) Subtitle#01..........: Spanish (Latin America) Latin America Subtitle#02..........: French (CA) Canada

    特技狂人4k(2024年)
    7.1
    ①网盘资源信息:
    剧情简介:特技演员为爱犯险,翻身做主角。   科尔特·西弗斯(瑞恩·高斯林 Ryan Gosling 饰)是一名特技演员,就跟这个行业的每一个特技演员一样,他常常被炸飞、辗压、破窗而出以及从高处坠落地面,全都是为了娱乐观众。如今,他才刚因为意外受伤几乎被迫无法再从事特技表演,平凡的科尔特必须找到失踪的电影明星汤姆·赖德(亚伦·泰勒-约翰逊 Aaron Taylor-Johnson 饰)、破解一个阴谋,并且赢回他一生挚爱乔迪(艾米莉·布朗特 Emily Blunt 饰)的芳心,同时还要继续当一名特技演员。分身乏术、焦头烂额的他有可能一帆风顺吗?

    4 天前/4K(3840x2160)

    异星战境4k

    Video ID : 1 Format : HEVC Format/Info : High Efficiency Video Coding Format profile : Main 10@L5@Main Codec ID : V_MPEGH/ISO/HEVC Duration : 2 h 0 min Bit rate : 10.8 Mb/s Width : 3 840 pixels Height : 2 160 pixels Display aspect ratio : 16:9 Frame rate mode : Constant Frame rate : 24.000 FPS Color space : YUV Chroma subsampling : 4:2:0 Bit depth : 10 bits Bits/(Pixel*Frame) : 0.054 Stream size : 9.02 GiB (86%) Title : BEN.THE.MEN Language : English Default : Yes Forced : Yes Color range : Limited Color primaries : BT.709 Transfer characteristics : BT.709 Matrix coefficients : BT.709 Audio #1 ID : 2 Format : E-AC-3 JOC Format/Info : Enhanced AC-3 with Joint Object Coding Commercial name : Dolby Digital Plus with Dolby Atmos Codec ID : A_EAC3 Duration : 2 h 0 min Bit rate mode : Constant Bit rate : 768 kb/s Channel(s) : 6 channels Channel layout : L R C LFE Ls Rs Sampling rate : 48.0 kHz Frame rate : 31.250 FPS (1536 SPF) Compression mode : Lossy Stream size : 660 MiB (6%) Title : BTM DDP5.1 Atmos Language : English Service kind : Complete Main Default : Yes Forced : Yes Complexity index : 16 Number of dynamic objects : 15 Bed channel count : 1 channel Bed channel configuration : LFE Dialog Normalization : -26 dB compr : -0.28 dB dialnorm_Average : -26 dB dialnorm_Minimum : -26 dB dialnorm_Maximum : -26 dB Audio #2 ID : 3 Format : E-AC-3 Format/Info : Enhanced AC-3 Commercial name : Dolby Digital Plus Codec ID : A_EAC3 Duration : 2 h 0 min Bit rate mode : Constant Bit rate : 960 kb/s Channel(s) : 6 channels Channel layout : L R C LFE Ls Rs Sampling rate : 48.0 kHz Frame rate : 31.250 FPS (1536 SPF) Compression mode : Lossy Stream size : 825 MiB (8%) Title : BTM DDP5.1 Language : English Service kind : Complete Main Default : No Forced : No Dialog Normalization : -31 dB dialnorm_Average : -31 dB dialnorm_Minimum : -31 dB dialnorm_Maximum : -31 dB

    异星战境4k(2024年)
    ①网盘资源信息:
    剧情简介:在未来世界,军事情报分析师Atlas Shepherd(詹妮弗·洛佩兹 Jennifer Lopez 饰),对AI有着深切的不信任感。她加入了一个任务,试图捕捉一个叛逃的机器人,而这个机器人有着神秘的过去。不过,当计划失败时,她唯一拯救人类未来免受AI侵害的希望就是去相信它。
    6.9

    4 天前/4K(3840x2160)

    孤注一掷4k

    Video ID : 1 Format : AVC Format/Info : Advanced Video Codec Format profile : Main@L5.1 Format settings : CABAC / 4 Ref Frames Format settings, CABAC : Yes Format settings, Reference frames : 4 frames Codec ID : avc1 Codec ID/Info : Advanced Video Coding Duration : 2 h 9 min Bit rate mode : Variable Bit rate : 21.5 Mb/s Maximum bit rate : 120 Mb/s Width : 3 840 pixels Height : 2 160 pixels Display aspect ratio : 16:9 Frame rate mode : Variable Frame rate : 25.000 FPS Minimum frame rate : 17.158 FPS Maximum frame rate : 25.000 FPS Color space : YUV Chroma subsampling : 4:2:0 Bit depth : 8 bits Scan type : Progressive Bits/(Pixel*Frame) : 0.104 Stream size : 19.5 GiB (100%) Color range : Limited Color primaries : BT.709 Transfer characteristics : BT.709 Matrix coefficients : BT.709 Codec configuration box : avcC Audio ID : 2 Format : AAC LC Format/Info : Advanced Audio Codec Low Complexity Codec ID : mp4a-40-2 Duration : 2 h 9 min Bit rate mode : Constant Bit rate : 64.0 kb/s Channel(s) : 2 channels Channel layout : L R Sampling rate : 44.1 kHz Frame rate : 43.066 FPS (1024 SPF) Compression mode : Lossy Stream size : 59.5 MiB (0%) Default : Yes Alternate group : 1

    孤注一掷4k(2023年)
    6.9
    ①网盘资源信息:
    剧情简介:南亚某国,由于当地政府监管不力以及有意纵容,诈骗产业极其昌盛,炒股、挖币、网游、电商、博彩等,各种手段层出不穷,花样百出。某个科技产业园内,诈骗团伙头目陆经理(王传君 饰)张狂傲慢,用诡计和暴力统治着这个血泪王国。程序员潘生(张艺兴 饰)离开之前的公司,根据高薪招聘启示 走入了陆经理设下的圈套,成为一名利用网络诈骗的狗推。因为羡慕闺蜜的生活,模特梁安娜(金晨 饰)也飞到异国他乡寻找机会,结果护照被没收,成为陆经理手下利用美色诈骗的工具。进入人间炼狱,仿佛再也见不到活着出去的希望……   电影取材自上万起真实诈骗案例。


2015-2023 www.4ksj.com  4K世界 |网站地图
京ICP证160991号 京公网安备11010802015683号 Copyright ©2023 All Rights Reserved.
    *本站提供的所有电影资源均来自互联网,仅限交流使用,请在下载后的2小时内删除,所有版权皆属原公司所有,如果认为本站侵犯了您的版权,请告知,我们会立即删除。