注册/登陆
游客您好
第三方账号登陆
双生谜4k.Tin.and.Tina.2023.2160p.电影下载
[复制链接]
2023-10-14 发布
  • 4K大师玩家
  • 20
  • 3337
静待花开 发表于 2023-10-14 17:48:17 |阅读模式 打印 上一主题 下一主题

双生谜4k
2023年(豆瓣:5.0)
  • 电影声道:5.1声道 
  • 电影语言:中文简体   中文繁体   英文字幕   
  • 画质标准 HDR 
  • 资源版本 WEB-DL 4K   
  • 帧数/FPS:24.000 Fps
    发布排行: 第部4K原盘
    导  演:Rubin Stein
    制片国家:美国 西班牙 其他 
    电影分类:恐怖 惊悚 悬疑 
    分 辨 率:4K(3840x2160)
简介这部电影是根据悬疑短片改编的,该片获得了从金梅利奖到欧洲最佳奇幻短片的提名,获得了30多个奖项,并在200多个电影节上放映。
  • 网盘①


    提取码①
    无链接, 或无权限
    网盘②


    访问码②
    中文字幕


    BT种子 / 磁力链下载
  • 电影信息INFO
    Video
    ID : 1
    Format : HEVC
    Format/Info : High Efficiency Video Coding
    Format profile : Main 10@L5@Main
    Codec ID : V_MPEGH/ISO/HEVC
    Duration : 1 h 59 min
    Bit rate : 12.2 Mb/s
    Width : 3 840 pixels
    Height : 2 160 pixels
    Display aspect ratio : 16:9
    Frame rate mode : Constant
    Frame rate : 24.000 FPS
    Color space : YUV
    Chroma subsampling : 4:2:0
    Bit depth : 10 bits
    Bits/(Pixel*Frame) : 0.061
    Stream size : 10.2 GiB (95%)
    Default : Yes
    Forced : No
    Color range : Limited
    Color primaries : BT.709
    Transfer characteristics : BT.709
    Matrix coefficients : BT.709

    Audio
    ID : 2
    Format : E-AC-3
    Format/Info : Enhanced AC-3
    Commercial name : Dolby Digital Plus
    Codec ID : A_EAC3
    Duration : 1 h 59 min
    Bit rate mode : Constant
    Bit rate : 640 kb/s
    Channel(s) : 6 channels
    Channel layout : L R C LFE Ls Rs
    Sampling rate : 48.0 kHz
    Frame rate : 31.250 FPS (1536 SPF)
    Compression mode : Lossy
    Stream size : 548 MiB (5%)
    Language : English
    Service kind : Complete Main
    Default : Yes
    Forced : No

    Text #1
    ID : 3
    Format : UTF-8
    Codec ID : S_TEXT/UTF8
    Codec ID/Info : UTF-8 Plain Text
    Duration : 1 h 58 min
    Bit rate : 37 b/s
    Frame rate : 0.176 FPS
    Count of elements : 1254
    Stream size : 33.0 KiB (0%)
    Language : English
    Default : Yes
    Forced : No

    Text #2
    ID : 4
    Format : UTF-8
    Codec ID : S_TEXT/UTF8
    Codec ID/Info : UTF-8 Plain Text
    Duration : 1 h 41 min
    Bit rate : 2 b/s
    Frame rate : 0.009 FPS
    Count of elements : 53
    Stream size : 2.16 KiB (0%)
    Title : Dub (Forced)
    Language : English
    Default : No
    Forced : Yes

    Text #3
    ID : 5
    Format : UTF-8
    Codec ID : S_TEXT/UTF8
    Codec ID/Info : UTF-8 Plain Text
    Duration : 1 h 55 min
    Bit rate : 42 b/s
    Frame rate : 0.179 FPS
    Count of elements : 1244
    Stream size : 35.6 KiB (0%)
    Title : Dub
    Language : English
    Default : No
    Forced : No

    Text #4
    ID : 6
    Format : UTF-8
    Codec ID : S_TEXT/UTF8
    Codec ID/Info : UTF-8 Plain Text
    Duration : 1 h 58 min
    Bit rate : 61 b/s
    Frame rate : 0.257 FPS
    Count of elements : 1830
    Stream size : 53.1 KiB (0%)
    Title : Dub (SDH)
    Language : English
    Default : No
    Forced : No

    Text #5
    ID : 7
    Format : UTF-8
    Codec ID : S_TEXT/UTF8
    Codec ID/Info : UTF-8 Plain Text
    Duration : 1 h 55 min
    Bit rate : 68 b/s
    Frame rate : 0.181 FPS
    Count of elements : 1255
    Stream size : 57.9 KiB (0%)
    Language : Arabic
    Default : No
    Forced : No

    Text #6
    ID : 8
    Format : UTF-8
    Codec ID : S_TEXT/UTF8
    Codec ID/Info : UTF-8 Plain Text
    Duration : 1 h 58 min
    Bit rate : 36 b/s
    Frame rate : 0.175 FPS
    Count of elements : 1247
    Stream size : 31.7 KiB (0%)
    Language : Czech
    Default : No
    Forced : No

    Text #7
    ID : 9
    Format : UTF-8
    Codec ID : S_TEXT/UTF8
    Codec ID/Info : UTF-8 Plain Text
    Duration : 1 h 58 min
    Bit rate : 37 b/s
    Frame rate : 0.162 FPS
    Count of elements : 1152
    Stream size : 32.3 KiB (0%)
    Language : Danish
    Default : No
    Forced : No

    Text #8
    ID : 10
    Format : UTF-8
    Codec ID : S_TEXT/UTF8
    Codec ID/Info : UTF-8 Plain Text
    Duration : 1 h 58 min
    Bit rate : 41 b/s
    Frame rate : 0.168 FPS
    Count of elements : 1199
    Stream size : 36.1 KiB (0%)
    Language : German
    Default : No
    Forced : No

    Text #9
    ID : 11
    Format : UTF-8
    Codec ID : S_TEXT/UTF8
    Codec ID/Info : UTF-8 Plain Text
    Duration : 1 h 58 min
    Bit rate : 64 b/s
    Frame rate : 0.166 FPS
    Count of elements : 1181
    Stream size : 56.2 KiB (0%)
    Language : Greek
    Default : No
    Forced : No

    Text #10
    ID : 12
    Format : UTF-8
    Codec ID : S_TEXT/UTF8
    Codec ID/Info : UTF-8 Plain Text
    Duration : 1 h 55 min
    Bit rate : 44 b/s
    Frame rate : 0.183 FPS
    Count of elements : 1268
    Stream size : 37.2 KiB (0%)
    Language : Spanish (ES)
    Default : No
    Forced : No

    Text #11
    ID : 13
    Format : UTF-8
    Codec ID : S_TEXT/UTF8
    Codec ID/Info : UTF-8 Plain Text
    Duration : 1 h 56 min
    Bit rate : 65 b/s
    Frame rate : 0.271 FPS
    Count of elements : 1892
    Stream size : 55.6 KiB (0%)
    Title : SDH
    Language : Spanish (ES)
    Default : No
    Forced : No

    Text #12
    ID : 14
    Format : UTF-8
    Codec ID : S_TEXT/UTF8
    Codec ID/Info : UTF-8 Plain Text
    Duration : 1 h 58 min
    Bit rate : 39 b/s
    Frame rate : 0.173 FPS
    Count of elements : 1235
    Stream size : 34.4 KiB (0%)
    Language : fil
    Default : No
    Forced : No

    Text #13
    ID : 15
    Format : UTF-8
    Codec ID : S_TEXT/UTF8
    Codec ID/Info : UTF-8 Plain Text
    Duration : 1 h 58 min
    Bit rate : 38 b/s
    Frame rate : 0.163 FPS
    Count of elements : 1161
    Stream size : 33.2 KiB (0%)
    Language : Finnish
    Default : No
    Forced : No

    Text #14
    ID : 16
    Format : UTF-8
    Codec ID : S_TEXT/UTF8
    Codec ID/Info : UTF-8 Plain Text
    Duration : 1 h 58 min
    Bit rate : 38 b/s
    Frame rate : 0.167 FPS
    Count of elements : 1190
    Stream size : 33.6 KiB (0%)
    Language : French
    Default : No
    Forced : No

    Text #15
    ID : 17
    Format : UTF-8
    Codec ID : S_TEXT/UTF8
    Codec ID/Info : UTF-8 Plain Text
    Duration : 1 h 58 min
    Bit rate : 56 b/s
    Frame rate : 0.178 FPS
    Count of elements : 1270
    Stream size : 49.2 KiB (0%)
    Language : Hebrew
    Default : No
    Forced : No

    Text #16
    ID : 18
    Format : UTF-8
    Codec ID : S_TEXT/UTF8
    Codec ID/Info : UTF-8 Plain Text
    Duration : 1 h 58 min
    Bit rate : 34 b/s
    Frame rate : 0.172 FPS
    Count of elements : 1225
    Stream size : 30.1 KiB (0%)
    Language : Croatian
    Default : No
    Forced : No

    Text #17
    ID : 19
    Format : UTF-8
    Codec ID : S_TEXT/UTF8
    Codec ID/Info : UTF-8 Plain Text
    Duration : 1 h 58 min
    Bit rate : 38 b/s
    Frame rate : 0.174 FPS
    Count of elements : 1243
    Stream size : 33.8 KiB (0%)
    Language : Hungarian
    Default : No
    Forced : No

    Text #18
    ID : 20
    Format : UTF-8
    Codec ID : S_TEXT/UTF8
    Codec ID/Info : UTF-8 Plain Text
    Duration : 1 h 58 min
    Bit rate : 39 b/s
    Frame rate : 0.175 FPS
    Count of elements : 1250
    Stream size : 34.2 KiB (0%)
    Language : Indonesian
    Default : No
    Forced : No

    Text #19
    ID : 21
    Format : UTF-8
    Codec ID : S_TEXT/UTF8
    Codec ID/Info : UTF-8 Plain Text
    Duration : 1 h 58 min
    Bit rate : 39 b/s
    Frame rate : 0.174 FPS
    Count of elements : 1244
    Stream size : 34.7 KiB (0%)
    Language : Italian
    Default : No
    Forced : No

    Text #20
    ID : 22
    Format : UTF-8
    Codec ID : S_TEXT/UTF8
    Codec ID/Info : UTF-8 Plain Text
    Duration : 1 h 58 min
    Bit rate : 39 b/s
    Frame rate : 0.175 FPS
    Count of elements : 1249
    Stream size : 34.8 KiB (0%)
    Language : Japanese
    Default : No
    Forced : No

    Text #21
    ID : 23
    Format : UTF-8
    Codec ID : S_TEXT/UTF8
    Codec ID/Info : UTF-8 Plain Text
    Duration : 1 h 58 min
    Bit rate : 46 b/s
    Frame rate : 0.176 FPS
    Count of elements : 1257
    Stream size : 40.5 KiB (0%)
    Language : Korean
    Default : No
    Forced : No

    Text #22
    ID : 24
    Format : UTF-8
    Codec ID : S_TEXT/UTF8
    Codec ID/Info : UTF-8 Plain Text
    Duration : 1 h 58 min
    Bit rate : 39 b/s
    Frame rate : 0.167 FPS
    Count of elements : 1190
    Stream size : 34.6 KiB (0%)
    Language : Malay
    Default : No
    Forced : No

    Text #23
    ID : 25
    Format : UTF-8
    Codec ID : S_TEXT/UTF8
    Codec ID/Info : UTF-8 Plain Text
    Duration : 1 h 58 min
    Bit rate : 35 b/s
    Frame rate : 0.161 FPS
    Count of elements : 1149
    Stream size : 31.2 KiB (0%)
    Language : Norwegian Bokmal
    Default : No
    Forced : No

    Text #24
    ID : 26
    Format : UTF-8
    Codec ID : S_TEXT/UTF8
    Codec ID/Info : UTF-8 Plain Text
    Duration : 1 h 58 min
    Bit rate : 33 b/s
    Frame rate : 0.161 FPS
    Count of elements : 1148
    Stream size : 29.5 KiB (0%)
    Language : Dutch
    Default : No
    Forced : No

    Text #25
    ID : 27
    Format : UTF-8
    Codec ID : S_TEXT/UTF8
    Codec ID/Info : UTF-8 Plain Text
    Duration : 1 h 58 min
    Bit rate : 35 b/s
    Frame rate : 0.170 FPS
    Count of elements : 1215
    Stream size : 30.5 KiB (0%)
    Language : Polish
    Default : No
    Forced : No

    Text #26
    ID : 28
    Format : UTF-8
    Codec ID : S_TEXT/UTF8
    Codec ID/Info : UTF-8 Plain Text
    Duration : 1 h 58 min
    Bit rate : 37 b/s
    Frame rate : 0.171 FPS
    Count of elements : 1221
    Stream size : 32.7 KiB (0%)
    Title : Brazilian
    Language : Portuguese (BR)
    Default : No
    Forced : No

    Text #27
    ID : 29
    Format : UTF-8
    Codec ID : S_TEXT/UTF8
    Codec ID/Info : UTF-8 Plain Text
    Duration : 1 h 58 min
    Bit rate : 36 b/s
    Frame rate : 0.169 FPS
    Count of elements : 1204
    Stream size : 32.0 KiB (0%)
    Language : Portuguese (PT)
    Default : No
    Forced : No

    Text #28
    ID : 30
    Format : UTF-8
    Codec ID : S_TEXT/UTF8
    Codec ID/Info : UTF-8 Plain Text
    Duration : 1 h 58 min
    Bit rate : 42 b/s
    Frame rate : 0.170 FPS
    Count of elements : 1210
    Stream size : 36.6 KiB (0%)
    Language : Romanian
    Default : No
    Forced : No

    Text #29
    ID : 31
    Format : UTF-8
    Codec ID : S_TEXT/UTF8
    Codec ID/Info : UTF-8 Plain Text
    Duration : 1 h 58 min
    Bit rate : 60 b/s
    Frame rate : 0.178 FPS
    Count of elements : 1269
    Stream size : 52.9 KiB (0%)
    Language : Russian
    Default : No
    Forced : No

    Text #30
    ID : 32
    Format : UTF-8
    Codec ID : S_TEXT/UTF8
    Codec ID/Info : UTF-8 Plain Text
    Duration : 1 h 58 min
    Bit rate : 39 b/s
    Frame rate : 0.145 FPS
    Count of elements : 1034
    Stream size : 34.3 KiB (0%)
    Language : Swedish
    Default : No
    Forced : No

    Text #31
    ID : 33
    Format : UTF-8
    Codec ID : S_TEXT/UTF8
    Codec ID/Info : UTF-8 Plain Text
    Duration : 1 h 58 min
    Bit rate : 95 b/s
    Frame rate : 0.176 FPS
    Count of elements : 1255
    Stream size : 83.0 KiB (0%)
    Language : Thai
    Default : No
    Forced : No

    Text #32
    ID : 34
    Format : UTF-8
    Codec ID : S_TEXT/UTF8
    Codec ID/Info : UTF-8 Plain Text
    Duration : 1 h 58 min
    Bit rate : 37 b/s
    Frame rate : 0.173 FPS
    Count of elements : 1233
    Stream size : 32.8 KiB (0%)
    Language : Turkish
    Default : No
    Forced : No

    Text #33
    ID : 35
    Format : UTF-8
    Codec ID : S_TEXT/UTF8
    Codec ID/Info : UTF-8 Plain Text
    Duration : 1 h 58 min
    Bit rate : 58 b/s
    Frame rate : 0.169 FPS
    Count of elements : 1204
    Stream size : 50.7 KiB (0%)
    Language : Ukrainian
    Default : No
    Forced : No

    Text #34
    ID : 36
    Format : UTF-8
    Codec ID : S_TEXT/UTF8
    Codec ID/Info : UTF-8 Plain Text
    Duration : 1 h 58 min
    Bit rate : 54 b/s
    Frame rate : 0.173 FPS
    Count of elements : 1237
    Stream size : 47.5 KiB (0%)
    Language : Vietnamese
    Default : No
    Forced : No

    Text #35
    ID : 37
    Format : UTF-8
    Codec ID : S_TEXT/UTF8
    Codec ID/Info : UTF-8 Plain Text
    Duration : 1 h 58 min
    Bit rate : 39 b/s
    Frame rate : 0.176 FPS
    Count of elements : 1255
    Stream size : 34.1 KiB (0%)
    Title : Simplified
    Language : Chinese (Simplified)
    Default : No
    Forced : No

    Text #36
    ID : 38
    Format : UTF-8
    Codec ID : S_TEXT/UTF8
    Codec ID/Info : UTF-8 Plain Text
    Duration : 1 h 58 min
    Bit rate : 38 b/s
    Frame rate : 0.176 FPS
    Count of elements : 1253
    Stream size : 33.8 KiB (0%)
    Title : Traditional
    Language : Chinese (Traditional)
    Default : No
    Forced : No

    Menu
    00:00:00.000 : en:Main
    01:56:19.000 : en:Credits

Tin y Tina/双生谜4k.Tin.and.Tina.2023.2160p.NF.WEB-DL.DUBBED.DDP5.1.H.265-4k电影下载

双生谜4k.Tin.and.Tina.2023.2160p.NF.WEB-DL.DUBBED.DDP5.1.H.265【简繁中字】【10.73 GB】
磁力链下载:
magnet:?xt=urn:btih:741b0204352b1ad20914526188cdc209c5a900ba&dn

双生谜4k.Tin.and.Tina.2023.2160p.NF.WEB-DL.DUAL.DDP5.1.Atmos.H.265【杜比视界】【简繁中字】【11.38 GB】
磁力链下载:
magnet:?xt=urn:btih:96c1c71f5aae504b4528635d647e599428735f50&dn

双生谜中文字幕 感谢K友@shine288分享的字幕
https://www.4ksj.com/thread-79898-1-1.html
您需要登录后才可以回帖 登录 | 立即注册

本版积分规则

推荐影视全站推荐影视下载
  • 6.7

    前天 23:58/4K(3840x2160)

    美国骗局4k

    Disc Title: American.Hustle.2013.2160p.USA.UHD.Blu-ray.DV.HDR.HEVC.TrueHD.7.1.Atmos-4ksj Disc Label: AMERICAN_HUSTLE Disc Size: 90,587,158,705 bytes Protection: AACS2 Playlist: 00001.MPLS Size: 85,214,373,888 bytes Length: 02:18:03.274 Total Bitrate: 82.30 Mbps Video: MPEG-H HEVC Video / 66,371 kbps / 2160p / 23.976 fps / 16:9 / Main 10 @ Level 5.1 @ High / 4:2:0 / 10 bits / HDR10 / Limited Range / BT.2020 / PQ / BT.2020 non-constant / Mastering display color primaries: Display P3 / Mastering display luminance: min: 0.0001 cd/m2, max: 1000.0000 cd/m2 / Maximum Content Light Level: 997 cd / m2 / Maximum Frame-Average Light Level: 284 cd/m2 * Video: MPEG-H HEVC Video / 2,101 kbps / 1080p / 23.976 fps / 16:9 / Main 10 @ Level 5.1 @ High / 4:2:0 / 10 bits / Dolby Vision / Limited Range / BT.2020 / PQ / BT.2020 non-constant / Mastering display color primaries: Display P3 / Mastering display luminance: min: 0.0001 cd/m2, max: 1000.0000 cd/m2 Audio: English / Dolby TrueHD/Atmos Audio / 7.1 / 48 kHz / 3630 kbps / 24-bit (AC3 Embedded: 5.1 / 48 kHz / 640 kbps / DN -31dB) Audio: English / DTS-HD Master Audio / 5.1 / 48 kHz / 2160 kbps / 16-bit (DTS Core: 5.1 / 48 kHz / 1509 kbps / 16-bit) Audio: Spanish / DTS-HD Master Audio / 5.1 / 48 kHz / 2177 kbps / 16-bit (DTS Core: 5.1 / 48 kHz / 1509 kbps / 16-bit) Subtitle: English / 56.67 kbps Subtitle: English / 51.51 kbps Subtitle: Spanish / 41.85 kbps

    美国骗局4k(2013年)
    6.7
    ①网盘资源信息:
    剧情简介: 一次偶然中,埃文(克里斯蒂安·贝尔 Christian Bale 饰)遇见了性感美艳的脱衣舞女西德尼(艾米·亚当斯 Amy Adams 饰),趣味相投的两人一见钟情,很快就打得火热。没想到,埃文是一个职业骗子,在他的鼓动和“爱情的力量”影响之下,西德尼毅然入伙,两人联手合作,将“事业”经营的有声有色。   然而,常在河边走哪有不湿鞋,警方早已经盯上了行事作风颇为高调的埃文和西德尼,终于,在一次精密筹划的行动中将两人捉拿归案。经不住FBI探员里奇(布莱德利·库珀 Bradley Cooper 饰)的游说和诱惑,埃文和西德尼决定与其合作,“戴罪立功”。尽管拾起了“老本行”,但这次一次,埃文和西德尼显然站在了正义的那一方,因为他们的对手是那些贪赃枉法的腐败官员。
    8.1

    6 天前/4K(3840x2160)

    周处除三害4k

    General............: The.Pig.the.Snake.and.the.Pigeon.2023.2160p.HQ.WEB-DL.H265.60fps.DTS5.1-4ksj Duration...........: 02:13:40.608 (HH:MM:SS:FF) RELEASE.SIZE.......: 25.0 GiB VIDEO.CODEC........: HEVC Main 10@L5.1@Main FRAMERATE..........: 60.000 fps VIDEO.BITRATE......: 25.0 Mb/s RESOLUTION.........: 3840 x 1608 ASPECT.RATIO.......: 2.40:1 Audio..............: DTS 6 channels 768 kb/s Chinese Mandarin [DTS5.1] Audio..............: E-AC-3 6 channels 256 kb/s Chinese Mandarin [DDP5.1] fm.hq Audio..............: E-AC-3 2 channels 256 kb/s Chinese Mandarin [DDP2.0] Audio..............: AAC 6 channels 256 kb/s Chinese Mandarin [AAC5.1] Audio..............: AAC 2 channels 256 kb/s Chinese Mandarin [AAC2.0]

    周处除三害4k(2023年)
    8.1
    ①网盘资源信息:
    剧情简介:通缉犯陈桂林(阮经天 饰)在逃亡藏匿中失去最后一个亲人,同时得知自己只有不到三个月的生命。万念俱灰的他原打算投案自首,可是当发现他在三大通缉犯中仅仅排名第三时,内心突然躁动起来。在此之后,他决定仿效古时候周处除三害的故事,临终之际要在江湖上留下他的传奇名号。通过地下医生张贵卿(谢琼煖 饰),陈桂林找到了分别排名第二和第一的香港仔(袁富华 饰)和牛头的线索,随后踏上征途。贪嗔痴,三毒熬煎,红尘混沌之人,被业障缠绕,永远无法跳脱因果轮回……   电影引用的“周处除三害”典故,见于《晋书·周处传》和《世说新语》。
    5.5

    3 天前/4K(3840x2160)

    我不好惹2:贝琪之怒4k

    Disc Title: BECKY 2 - SHE\\\\\\\\\\\\\\\\\\\\\\\\\\\\\\\'S BACK Disc Label: The.Wrath.of.Becky.2023.2160p.UHD.Blu-ray.HEVC.DTS-HD.MA.7.1-4ksj Disc Size: 54,543,534,782 bytes Protection: AACS2 Playlist: 00000.MPLS Size: 52,846,829,184 bytes Length: 1:24:10.000 Total Bitrate: 83.72 Mbps Video: MPEG-H HEVC Video / 70339 kbps / 2160p / 24 fps / 16:9 / Main 10 @ Level 5.1 @ High / 10 bits / HDR10 / BT.2020 Audio: German / DTS-HD Master Audio / 7.1 / 48 kHz / 4743 kbps / 24-bit (DTS Core: 5.1 / 48 kHz / 1509 kbps / 24-bit) Audio: English / DTS-HD Master Audio / 7.1 / 48 kHz / 4585 kbps / 24-bit (DTS Core: 5.1 / 48 kHz / 1509 kbps / 24-bit) Subtitle: German / 31.173 kbps Subtitle: German / 0.717 kbps

    ①网盘资源信息:
    剧情简介:在逃离暴力袭击两年后,女孩贝琪必须再度保护自己免受恐怖分子的袭击。贝琪试图在名叫埃琳娜的年长女性的照顾下重建自己的生活。但是,当一个被称为“贵族”的团体闯入他们的家,袭击他们,并带走她心爱的狗迭戈时,贝琪必须找回她以前的方式来保护自己和她的亲人。
    8.1

    7 天前/4K(3840x2160)

    戏梦巴黎4k

    BD INFO wrote: DISC INFO: Disc Title: The Dreamers Disc Label: THE DREAMERS Disc Size: 58,082,293,108 bytes Protection: AACS2 Extras: Ultra HD BDInfo: 0.8.0.1b PLAYLIST REPORT: Name: 00000.MPLS Length: 01:54:57.166 (h:m:s.ms) Size: 57,694,041,792 bytes Total Bitrate: 66.92 Mbps (*) Indicates included stream hidden by this playlist. VIDEO: Codec Bitrate Description --------------- ------------- ----------- MPEG-H HEVC Video 59,524 kbps 2160p / 24 fps / 16:9 / Main 10 @ Level 5.1 @ High / 4:2:0 / 10 bits / HDR10 / Limited Range / BT.2020 / PQ / BT.2020 non-constant / Mastering display color primaries: BT.2020 / Mastering display luminance: min: 0.0001 cd/m2, max: 1000.0000 cd/m2 * MPEG-H HEVC Video 103 kbps 1080p / 24 fps / 16:9 / Main 10 @ Level 5.1 @ High / 4:2:0 / 10 bits / Dolby Vision / Limited Range / BT.2020 / PQ / BT.2020 non-constant / Mastering display color primaries: BT.2020 / Mastering display luminance: min: 0.0001 cd/m2, max: 1000.0000 cd/m2 AUDIO: Codec Language Bitrate Description --------------- ------------- ------------- ----------- DTS-HD Master Audio English 2129 kbps 5.1 / 48 kHz / 2129 kbps / 16-bit (DTS Core: 5.1 / 48 kHz / 1509 kbps / 16-bit) DTS-HD Master Audio English 1559 kbps 2.0 / 48 kHz / 1559 kbps / 16-bit (DTS Core: 2.0 / 48 kHz / 1509 kbps / 16-bit) Dolby Digital Audio English 224 kbps 2.0 / 48 kHz / 224 kbps / DN -31dB SUBTITLES: Codec Language Bitrate Description --------------- ------------- ------------- ----------- Presentation Graphics English 25.33 kbps 1920x1080 / 1116 Captions Presentation Graphics English 2.62 kbps 1920x1080 / 159 Captions

    戏梦巴黎4k(00年代)
    8.1
    ①网盘资源信息:
    剧情简介:1968年法国学运前夕,孪生姐弟伊莎贝拉(伊娃•格林)和雷奥(路易斯•加瑞尔)因为电影,与来自美国的留学生马休(迈克尔•皮特)成为好朋友。姐弟两人将马休带到家中做客时,马休得到两人同是大学教授的父母的喜爱,住进他们家中,慢慢地,他喜欢上伊莎贝拉。   学运开始后大学停课,三个年轻人因无所事事在房间里玩起有关电影导演和台词的游戏,游戏进行当中,伊莎贝拉知晓马休对她有意思,联合雷奥要求马休与她,自此,由于父母出门度假,三人开始了如伊甸园般的日子,马休也慢慢发现伊莎贝拉和雷奥有不伦恋情,三人关系开始发生微妙的变化,而外面正如火如荼进行着的学运,似乎与他们无关。
    7.1

    前天 16:29/4K(3840x2160)

    特技狂人4k

    File Name............: The.Fall.Guy.2024.2160p.iTunes.WEB-DL.DDP.5.1.Atmos.HDR10+.H.265-4ksj File Size............: 22.30 GiB Duration.............: 02:06:53.451 (HH:MM:SS.FFF) Video Bit Rate.......: 24,420 kbps Video Codec..........: HEVC,Main 10@L5 SMPTE ST 2094 App 4, Version 1, HDR10+ Profile B compatible Frame Rate...........: 23.903 fps Resolution...........: 3836 x 1600 Audio#01.............: English (US) 768 kbps CBR 6channels E-AC-3 (ATMOS) Subtitle#01..........: Spanish (Latin America) Latin America Subtitle#02..........: French (CA) Canada

    特技狂人4k(2024年)
    7.1
    ①网盘资源信息:
    剧情简介:特技演员为爱犯险,翻身做主角。   科尔特·西弗斯(瑞恩·高斯林 Ryan Gosling 饰)是一名特技演员,就跟这个行业的每一个特技演员一样,他常常被炸飞、辗压、破窗而出以及从高处坠落地面,全都是为了娱乐观众。如今,他才刚因为意外受伤几乎被迫无法再从事特技表演,平凡的科尔特必须找到失踪的电影明星汤姆·赖德(亚伦·泰勒-约翰逊 Aaron Taylor-Johnson 饰)、破解一个阴谋,并且赢回他一生挚爱乔迪(艾米莉·布朗特 Emily Blunt 饰)的芳心,同时还要继续当一名特技演员。分身乏术、焦头烂额的他有可能一帆风顺吗?


2015-2023 www.4ksj.com  4K世界 |网站地图
京ICP证160991号 京公网安备11010802015683号 Copyright ©2023 All Rights Reserved.
    *本站提供的所有电影资源均来自互联网,仅限交流使用,请在下载后的2小时内删除,所有版权皆属原公司所有,如果认为本站侵犯了您的版权,请告知,我们会立即删除。