注册/登陆
游客您好
第三方账号登陆
城市英雄4k.Falling.Down.1993.2160p电影
[复制链接]
2023-10-25 发布
  • 4K大师玩家
  • 20
  • 3381
静待花开 发表于 2023-10-25 20:22:52 |阅读模式 打印 上一主题 下一主题

城市英雄4k
90年代(豆瓣:8.1)
  • 电影声道:5.1声道 
  • 电影语言:英文字幕   
  • 画质标准 HDR 
  • 资源版本 WEB-DL 4K   
  • 帧数/FPS:23.976 Fps
    发布排行: 第部4K原盘
    导  演:乔·舒马赫
    制片国家:美国 法国 英国 
    电影分类:犯罪 惊悚 剧情 
    分 辨 率:4K(3840x2160)
简介 迈克尔·道格拉斯扮演的威廉·福斯特是一家军工场的工程师,被解雇后心情很压抑。因离婚,小女儿的生日没被邀请,恰好路上堵车,他弃车走进一家杂货铺,想找点零钱打电话,却遭到刁难,他操起垒球棒砸了铺子。在公园休息时,又和流氓打了一架;在快餐店里因和服务生发生争执,他拔出从流氓那里缴获的手枪一阵乱射,此时他已完全失控。最后,他面对退休警官的枪口,不禁自问:“我是坏人吗?”
  • 网盘①


    提取码①
    无链接, 或无权限
    网盘②


    访问码②
    中文字幕


    BT种子 / 磁力链下载
  • 电影信息INFO
    Video
    ID : 1
    Format : HEVC
    Format/Info : High Efficiency Video Coding
    Format profile : Main 10@L5.1@High
    HDR format : SMPTE ST 2086, HDR10 compatible
    Codec ID : V_MPEGH/ISO/HEVC
    Duration : 1 h 52 min
    Bit rate : 58.7 Mb/s
    Width : 3 840 pixels
    Height : 2 160 pixels
    Display aspect ratio : 16:9
    Frame rate mode : Constant
    Frame rate : 23.976 (24000/1001) FPS
    Color space : YUV
    Chroma subsampling : 4:2:0 (Type 2)
    Bit depth : 10 bits
    Bits/(Pixel*Frame) : 0.295
    Stream size : 46.2 GiB (84%)
    Default : Yes
    Forced : No
    Color range : Limited
    Color primaries : BT.2020
    Transfer characteristics : PQ
    Matrix coefficients : BT.2020 non-constant
    Mastering display color primaries : BT.2020
    Mastering display luminance : min: 0.0001 cd/m2, max: 1000 cd/m2
    Maximum Content Light Level : 1000 cd/m2
    Maximum Frame-Average Light Level : 400 cd/m2

    Audio #1
    ID : 2
    ID in the original source medium : 4355 (0x1103)
    Format : DTS XLL
    Format/Info : Digital Theater Systems
    Commercial name : DTS-HD Master Audio
    Codec ID : A_DTS
    Duration : 1 h 52 min
    Bit rate mode : Variable
    Bit rate : 2 114 kb/s
    Channel(s) : 6 channels
    Channel layout : C L R Ls Rs LFE
    Sampling rate : 48.0 kHz
    Frame rate : 93.750 FPS (512 SPF)
    Bit depth : 16 bits
    Compression mode : Lossless
    Stream size : 1.66 GiB (3%)
    Title : BTM DTS-HD MA 5.1
    Language : English
    Default : No
    Forced : No
    Original source medium : Blu-ray

    Audio #2
    ID : 3
    Format : E-AC-3
    Format/Info : Enhanced AC-3
    Commercial name : Dolby Digital Plus
    Codec ID : A_EAC3
    Duration : 1 h 52 min
    Bit rate mode : Constant
    Bit rate : 960 kb/s
    Channel(s) : 6 channels
    Channel layout : L R C LFE Ls Rs
    Sampling rate : 48.0 kHz
    Frame rate : 31.250 FPS (1536 SPF)
    Compression mode : Lossy
    Stream size : 773 MiB (1%)
    Title : BTM DDP5.1
    Language : English
    Service kind : Complete Main
    Default : Yes
    Forced : No

    Audio #3
    ID : 4
    Format : DTS XLL
    Format/Info : Digital Theater Systems
    Commercial name : DTS-HD Master Audio
    Codec ID : A_DTS
    Duration : 1 h 52 min
    Bit rate mode : Variable
    Bit rate : 2 373 kb/s
    Channel(s) : 8 channels
    Channel layout : C L R LFE Lb Rb Lss Rss
    Sampling rate : 48.0 kHz
    Frame rate : 93.750 FPS (512 SPF)
    Bit depth : 16 bits
    Compression mode : Lossless
    Stream size : 1.87 GiB (3%)
    Title : BTM DTS-HD MA 7.1
    Language : German
    Default : No
    Forced : No

    Audio #4
    ID : 5
    ID in the original source medium : 4353 (0x1101)
    Format : DTS XLL
    Format/Info : Digital Theater Systems
    Commercial name : DTS-HD Master Audio
    Codec ID : A_DTS
    Duration : 1 h 52 min
    Bit rate mode : Variable
    Bit rate : 2 129 kb/s
    Channel(s) : 6 channels
    Channel layout : C L R Ls Rs LFE
    Sampling rate : 48.0 kHz
    Frame rate : 93.750 FPS (512 SPF)
    Bit depth : 16 bits
    Compression mode : Lossless
    Stream size : 1.67 GiB (3%)
    Title : BTM DTS-HD MA 5.1
    Language : German
    Default : No
    Forced : No
    Original source medium : Blu-ray

    Audio #5
    ID : 6
    Format : E-AC-3
    Format/Info : Enhanced AC-3
    Commercial name : Dolby Digital Plus
    Codec ID : A_EAC3
    Duration : 1 h 52 min
    Bit rate mode : Constant
    Bit rate : 960 kb/s
    Channel(s) : 6 channels
    Channel layout : L R C LFE Ls Rs
    Sampling rate : 48.0 kHz
    Frame rate : 31.250 FPS (1536 SPF)
    Compression mode : Lossy
    Stream size : 773 MiB (1%)
    Title : BTM DDP5.1
    Language : German
    Service kind : Complete Main
    Default : Yes
    Forced : No

    Audio #6
    ID : 7
    Format : E-AC-3
    Format/Info : Enhanced AC-3
    Commercial name : Dolby Digital Plus
    Codec ID : A_EAC3
    Duration : 1 h 52 min
    Bit rate mode : Constant
    Bit rate : 959 kb/s
    Channel(s) : 6 channels
    Channel layout : L R C LFE Ls Rs
    Sampling rate : 44.1 kHz
    Frame rate : 57.422 FPS (768 SPF)
    Compression mode : Lossy
    Stream size : 771 MiB (1%)
    Title : BTM DDP5.1
    Language : Spanish
    Service kind : Complete Main
    Default : Yes
    Forced : No

    Audio #7
    ID : 8
    Format : E-AC-3
    Format/Info : Enhanced AC-3
    Commercial name : Dolby Digital Plus
    Codec ID : A_EAC3
    Duration : 1 h 53 min
    Bit rate mode : Constant
    Bit rate : 959 kb/s
    Channel(s) : 6 channels
    Channel layout : L R C LFE Ls Rs
    Sampling rate : 44.1 kHz
    Frame rate : 57.422 FPS (768 SPF)
    Compression mode : Lossy
    Stream size : 776 MiB (1%)
    Title : BTM DDP5.1
    Language : Italian
    Service kind : Complete Main
    Default : Yes
    Forced : No

    Audio #8
    ID : 9
    Format : E-AC-3
    Format/Info : Enhanced AC-3
    Commercial name : Dolby Digital Plus
    Codec ID : A_EAC3
    Duration : 1 h 53 min
    Bit rate mode : Constant
    Bit rate : 959 kb/s
    Channel(s) : 6 channels
    Channel layout : L R C LFE Ls Rs
    Sampling rate : 44.1 kHz
    Frame rate : 57.422 FPS (768 SPF)
    Compression mode : Lossy
    Stream size : 776 MiB (1%)
    Title : BTM DDP5.1
    Language : Russian
    Service kind : Complete Main
    Default : Yes
    Forced : No

堕落 / 怒火风暴 / 崩溃/城市英雄4k.Falling.Down.1993.2160p.AI.Enhance.HDR.ENG.RUS.ITA.GER.And.ESP.LATINO.DTS-HD.Master.DDP5.1.MKV-4k电影下载

城市英雄4k.Falling.Down.1993.2160p.AI.Enhance.HDR.ENG.RUS.ITA.GER.And.ESP.LATINO.DTS-HD.Master.DDP5.1.MKV【55.17 GB】

磁力链下载:
magnet:?xt=urn:btih:b27b55bb8491b88f781fa6d0f5a71ae626ba7387&dn


您需要登录后才可以回帖 登录 | 立即注册

本版积分规则

推荐影视全站推荐影视下载
  • 6.7

    6 天前/4K(3840x2160)

    美国骗局4k

    Disc Title: American.Hustle.2013.2160p.USA.UHD.Blu-ray.DV.HDR.HEVC.TrueHD.7.1.Atmos-4ksj Disc Label: AMERICAN_HUSTLE Disc Size: 90,587,158,705 bytes Protection: AACS2 Playlist: 00001.MPLS Size: 85,214,373,888 bytes Length: 02:18:03.274 Total Bitrate: 82.30 Mbps Video: MPEG-H HEVC Video / 66,371 kbps / 2160p / 23.976 fps / 16:9 / Main 10 @ Level 5.1 @ High / 4:2:0 / 10 bits / HDR10 / Limited Range / BT.2020 / PQ / BT.2020 non-constant / Mastering display color primaries: Display P3 / Mastering display luminance: min: 0.0001 cd/m2, max: 1000.0000 cd/m2 / Maximum Content Light Level: 997 cd / m2 / Maximum Frame-Average Light Level: 284 cd/m2 * Video: MPEG-H HEVC Video / 2,101 kbps / 1080p / 23.976 fps / 16:9 / Main 10 @ Level 5.1 @ High / 4:2:0 / 10 bits / Dolby Vision / Limited Range / BT.2020 / PQ / BT.2020 non-constant / Mastering display color primaries: Display P3 / Mastering display luminance: min: 0.0001 cd/m2, max: 1000.0000 cd/m2 Audio: English / Dolby TrueHD/Atmos Audio / 7.1 / 48 kHz / 3630 kbps / 24-bit (AC3 Embedded: 5.1 / 48 kHz / 640 kbps / DN -31dB) Audio: English / DTS-HD Master Audio / 5.1 / 48 kHz / 2160 kbps / 16-bit (DTS Core: 5.1 / 48 kHz / 1509 kbps / 16-bit) Audio: Spanish / DTS-HD Master Audio / 5.1 / 48 kHz / 2177 kbps / 16-bit (DTS Core: 5.1 / 48 kHz / 1509 kbps / 16-bit) Subtitle: English / 56.67 kbps Subtitle: English / 51.51 kbps Subtitle: Spanish / 41.85 kbps

    美国骗局4k(2013年)
    6.7
    ①网盘资源信息:
    剧情简介: 一次偶然中,埃文(克里斯蒂安·贝尔 Christian Bale 饰)遇见了性感美艳的脱衣舞女西德尼(艾米·亚当斯 Amy Adams 饰),趣味相投的两人一见钟情,很快就打得火热。没想到,埃文是一个职业骗子,在他的鼓动和“爱情的力量”影响之下,西德尼毅然入伙,两人联手合作,将“事业”经营的有声有色。   然而,常在河边走哪有不湿鞋,警方早已经盯上了行事作风颇为高调的埃文和西德尼,终于,在一次精密筹划的行动中将两人捉拿归案。经不住FBI探员里奇(布莱德利·库珀 Bradley Cooper 饰)的游说和诱惑,埃文和西德尼决定与其合作,“戴罪立功”。尽管拾起了“老本行”,但这次一次,埃文和西德尼显然站在了正义的那一方,因为他们的对手是那些贪赃枉法的腐败官员。

    3 天前/4K(3840x2160)

    美国内战4k

    File Name............: Civil.War.2024.2160p.iTunes.WEB-DL.DDP.5.1.Atmos.H.265-4ksj File Size............: 15.90 GiB Duration.............: 01:48:45.268 (HH:MM:SS.FFF) Video Bit Rate.......: 20,147 kbps Video Codec..........: HEVC,Main 10@L5 Frame Rate...........: 23.976 fps Resolution...........: 3836 x 2072 Audio#01.............: English (US) 768 kbps CBR 6channels E-AC-3 (ATMOS) Subtitle#01..........: Spanish (Latin America) Latin America

    美国内战4k(2024年)
    ①网盘资源信息:
    剧情简介: 影片讲述美国在不久的将来,爆发了影响全国的内战。在资深战地摄影师李·史密斯(克斯汀·邓斯特 Kirsten Dunst 饰)的带领下,记者们组成了一支强大的专业团队,穿越战线并设法生存下来。他们驱车前往华盛顿特区,希望在总统向名为 "WF"的军事力量投降之前采访总统。
    7.1

    6 天前/4K(3840x2160)

    特技狂人4k

    File Name............: The.Fall.Guy.2024.2160p.iTunes.WEB-DL.DDP.5.1.Atmos.HDR10+.H.265-4ksj File Size............: 22.30 GiB Duration.............: 02:06:53.451 (HH:MM:SS.FFF) Video Bit Rate.......: 24,420 kbps Video Codec..........: HEVC,Main 10@L5 SMPTE ST 2094 App 4, Version 1, HDR10+ Profile B compatible Frame Rate...........: 23.903 fps Resolution...........: 3836 x 1600 Audio#01.............: English (US) 768 kbps CBR 6channels E-AC-3 (ATMOS) Subtitle#01..........: Spanish (Latin America) Latin America Subtitle#02..........: French (CA) Canada

    特技狂人4k(2024年)
    7.1
    ①网盘资源信息:
    剧情简介:特技演员为爱犯险,翻身做主角。   科尔特·西弗斯(瑞恩·高斯林 Ryan Gosling 饰)是一名特技演员,就跟这个行业的每一个特技演员一样,他常常被炸飞、辗压、破窗而出以及从高处坠落地面,全都是为了娱乐观众。如今,他才刚因为意外受伤几乎被迫无法再从事特技表演,平凡的科尔特必须找到失踪的电影明星汤姆·赖德(亚伦·泰勒-约翰逊 Aaron Taylor-Johnson 饰)、破解一个阴谋,并且赢回他一生挚爱乔迪(艾米莉·布朗特 Emily Blunt 饰)的芳心,同时还要继续当一名特技演员。分身乏术、焦头烂额的他有可能一帆风顺吗?
    5.5

    7 天前/4K(3840x2160)

    我不好惹2:贝琪之怒4k

    Disc Title: BECKY 2 - SHE\\\\\\\\\\\\\\\\\\\\\\\\\\\\\\\\\\\\\\\\\\\\\\\\\\\\\\\\\\\\\\\'S BACK Disc Label: The.Wrath.of.Becky.2023.2160p.UHD.Blu-ray.HEVC.DTS-HD.MA.7.1-4ksj Disc Size: 54,543,534,782 bytes Protection: AACS2 Playlist: 00000.MPLS Size: 52,846,829,184 bytes Length: 1:24:10.000 Total Bitrate: 83.72 Mbps Video: MPEG-H HEVC Video / 70339 kbps / 2160p / 24 fps / 16:9 / Main 10 @ Level 5.1 @ High / 10 bits / HDR10 / BT.2020 Audio: German / DTS-HD Master Audio / 7.1 / 48 kHz / 4743 kbps / 24-bit (DTS Core: 5.1 / 48 kHz / 1509 kbps / 24-bit) Audio: English / DTS-HD Master Audio / 7.1 / 48 kHz / 4585 kbps / 24-bit (DTS Core: 5.1 / 48 kHz / 1509 kbps / 24-bit) Subtitle: German / 31.173 kbps Subtitle: German / 0.717 kbps

    ①网盘资源信息:
    剧情简介:在逃离暴力袭击两年后,女孩贝琪必须再度保护自己免受恐怖分子的袭击。贝琪试图在名叫埃琳娜的年长女性的照顾下重建自己的生活。但是,当一个被称为“贵族”的团体闯入他们的家,袭击他们,并带走她心爱的狗迭戈时,贝琪必须找回她以前的方式来保护自己和她的亲人。

    3 天前/4K(3840x2160)

    异星战境4k

    Video ID : 1 Format : HEVC Format/Info : High Efficiency Video Coding Format profile : Main 10@L5@Main Codec ID : V_MPEGH/ISO/HEVC Duration : 2 h 0 min Bit rate : 10.8 Mb/s Width : 3 840 pixels Height : 2 160 pixels Display aspect ratio : 16:9 Frame rate mode : Constant Frame rate : 24.000 FPS Color space : YUV Chroma subsampling : 4:2:0 Bit depth : 10 bits Bits/(Pixel*Frame) : 0.054 Stream size : 9.02 GiB (86%) Title : BEN.THE.MEN Language : English Default : Yes Forced : Yes Color range : Limited Color primaries : BT.709 Transfer characteristics : BT.709 Matrix coefficients : BT.709 Audio #1 ID : 2 Format : E-AC-3 JOC Format/Info : Enhanced AC-3 with Joint Object Coding Commercial name : Dolby Digital Plus with Dolby Atmos Codec ID : A_EAC3 Duration : 2 h 0 min Bit rate mode : Constant Bit rate : 768 kb/s Channel(s) : 6 channels Channel layout : L R C LFE Ls Rs Sampling rate : 48.0 kHz Frame rate : 31.250 FPS (1536 SPF) Compression mode : Lossy Stream size : 660 MiB (6%) Title : BTM DDP5.1 Atmos Language : English Service kind : Complete Main Default : Yes Forced : Yes Complexity index : 16 Number of dynamic objects : 15 Bed channel count : 1 channel Bed channel configuration : LFE Dialog Normalization : -26 dB compr : -0.28 dB dialnorm_Average : -26 dB dialnorm_Minimum : -26 dB dialnorm_Maximum : -26 dB Audio #2 ID : 3 Format : E-AC-3 Format/Info : Enhanced AC-3 Commercial name : Dolby Digital Plus Codec ID : A_EAC3 Duration : 2 h 0 min Bit rate mode : Constant Bit rate : 960 kb/s Channel(s) : 6 channels Channel layout : L R C LFE Ls Rs Sampling rate : 48.0 kHz Frame rate : 31.250 FPS (1536 SPF) Compression mode : Lossy Stream size : 825 MiB (8%) Title : BTM DDP5.1 Language : English Service kind : Complete Main Default : No Forced : No Dialog Normalization : -31 dB dialnorm_Average : -31 dB dialnorm_Minimum : -31 dB dialnorm_Maximum : -31 dB

    异星战境4k(2024年)
    ①网盘资源信息:
    剧情简介:在未来世界,军事情报分析师Atlas Shepherd(詹妮弗·洛佩兹 Jennifer Lopez 饰),对AI有着深切的不信任感。她加入了一个任务,试图捕捉一个叛逃的机器人,而这个机器人有着神秘的过去。不过,当计划失败时,她唯一拯救人类未来免受AI侵害的希望就是去相信它。


2015-2023 www.4ksj.com  4K世界 |网站地图
京ICP证160991号 京公网安备11010802015683号 Copyright ©2023 All Rights Reserved.
    *本站提供的所有电影资源均来自互联网,仅限交流使用,请在下载后的2小时内删除,所有版权皆属原公司所有,如果认为本站侵犯了您的版权,请告知,我们会立即删除。