注册/登陆
游客您好
第三方账号登陆
[闲聊] 下载电影,看它那个评分,真的很重要吗?很有必要吗?我不这样认为。
[复制链接]
2023-10-26 发布
  • 4K进阶玩家
  • 20
  • 808
七彩黄山 发表于 2023-10-26 10:46:41 |阅读模式 打印 上一主题 下一主题
<绝命逃亡>4.2分  < 城市英雄>评分8.1分。嗯,两部片子都没有看过。选哪个?,我宁愿去选4.2的   绝命逃...  ,也不会去选8.1的城市英雄,因为那个城市英雄我看了根本就是一个神经病大发作。看那种影片都会把你看神经。一点意思都没有,<月光男孩>,很好看吗?纯粹是胡扯。所谓的评分,那就只能做一个参考。

精彩评论9

hhwhan 发表于 2023-10-26 15:14:34
这个仅供参考吧,个人喜好
回复 支持 反对

使用道具 举报

老虎兄弟 发表于 2023-10-26 15:39:18
确实要有自己的见解,有时候大多数人的判断并不能替代你自己的感受!
回复 支持 反对

使用道具 举报

coolkage 发表于 2023-10-27 11:11:11
分数只是代表了大多数人的认为,当然很小部分人有不同意见,就像楼主
回复 支持 反对

使用道具 举报

13940561921 发表于 2023-10-27 13:23:01
仅供参考吧
回复 支持 反对

使用道具 举报

 楼主| 七彩黄山 发表于 2023-10-28 23:04:09
看了绝命逃亡,看了  模仿游戏 ,看了  突破。, 绝命逃亡是4.2。模拟游戏是8.8。突破是5.8而卡秋莎行动是5.7。难怪有人说,下载前不要看豆瓣的评分,豆瓣的评分真的是胡扯。这几部片子都是2.0声道的,也都不是HDr版。而模仿游戏给评了8.8分   个人感觉,最好看的还是喀秋莎行动。绝命逃亡,如果把它当做一个大爆米花看,那也可以, 。突破  感到很一般,而模仿游戏嗯,从画面音频到故事内容,都不感觉到它能值8.8分啊?.而且凡是反映同性恋的影片的评分都挺高的。哈哈,这是一种什么样的社会认知?故我从来不去看什么奥斯卡的评奖,就是看看大概的内容介绍,就知道这个片子怎么样了。当然这只是个人的见解。
回复 支持 反对

使用道具 举报

astringer 发表于 2023-10-29 09:09:45
所谓的评分,那就只能做一个参考
回复 支持 反对

使用道具 举报

ntzg 发表于 2023-10-29 09:57:56
如果评分是正确的还是可以作为参考。
回复 支持 反对

使用道具 举报

丰华校长 发表于 2023-10-30 09:16:40
coolkage 发表于 2023-10-27 11:11
分数只是代表了大多数人的认为,当然很小部分人有不同意见,就像楼主

这个回复十分精炼和到位
回复 支持 反对

使用道具 举报

您需要登录后才可以回帖 登录 | 立即注册

本版积分规则

推荐影视全站推荐影视下载
  • 6.7

    7 天前/4K(3840x2160)

    美国骗局4k

    Disc Title: American.Hustle.2013.2160p.USA.UHD.Blu-ray.DV.HDR.HEVC.TrueHD.7.1.Atmos-4ksj Disc Label: AMERICAN_HUSTLE Disc Size: 90,587,158,705 bytes Protection: AACS2 Playlist: 00001.MPLS Size: 85,214,373,888 bytes Length: 02:18:03.274 Total Bitrate: 82.30 Mbps Video: MPEG-H HEVC Video / 66,371 kbps / 2160p / 23.976 fps / 16:9 / Main 10 @ Level 5.1 @ High / 4:2:0 / 10 bits / HDR10 / Limited Range / BT.2020 / PQ / BT.2020 non-constant / Mastering display color primaries: Display P3 / Mastering display luminance: min: 0.0001 cd/m2, max: 1000.0000 cd/m2 / Maximum Content Light Level: 997 cd / m2 / Maximum Frame-Average Light Level: 284 cd/m2 * Video: MPEG-H HEVC Video / 2,101 kbps / 1080p / 23.976 fps / 16:9 / Main 10 @ Level 5.1 @ High / 4:2:0 / 10 bits / Dolby Vision / Limited Range / BT.2020 / PQ / BT.2020 non-constant / Mastering display color primaries: Display P3 / Mastering display luminance: min: 0.0001 cd/m2, max: 1000.0000 cd/m2 Audio: English / Dolby TrueHD/Atmos Audio / 7.1 / 48 kHz / 3630 kbps / 24-bit (AC3 Embedded: 5.1 / 48 kHz / 640 kbps / DN -31dB) Audio: English / DTS-HD Master Audio / 5.1 / 48 kHz / 2160 kbps / 16-bit (DTS Core: 5.1 / 48 kHz / 1509 kbps / 16-bit) Audio: Spanish / DTS-HD Master Audio / 5.1 / 48 kHz / 2177 kbps / 16-bit (DTS Core: 5.1 / 48 kHz / 1509 kbps / 16-bit) Subtitle: English / 56.67 kbps Subtitle: English / 51.51 kbps Subtitle: Spanish / 41.85 kbps

    美国骗局4k(2013年)
    6.7
    ①网盘资源信息:
    剧情简介: 一次偶然中,埃文(克里斯蒂安·贝尔 Christian Bale 饰)遇见了性感美艳的脱衣舞女西德尼(艾米·亚当斯 Amy Adams 饰),趣味相投的两人一见钟情,很快就打得火热。没想到,埃文是一个职业骗子,在他的鼓动和“爱情的力量”影响之下,西德尼毅然入伙,两人联手合作,将“事业”经营的有声有色。   然而,常在河边走哪有不湿鞋,警方早已经盯上了行事作风颇为高调的埃文和西德尼,终于,在一次精密筹划的行动中将两人捉拿归案。经不住FBI探员里奇(布莱德利·库珀 Bradley Cooper 饰)的游说和诱惑,埃文和西德尼决定与其合作,“戴罪立功”。尽管拾起了“老本行”,但这次一次,埃文和西德尼显然站在了正义的那一方,因为他们的对手是那些贪赃枉法的腐败官员。

    4 天前/4K(3840x2160)

    美国内战4k

    File Name............: Civil.War.2024.2160p.iTunes.WEB-DL.DDP.5.1.Atmos.H.265-4ksj File Size............: 15.90 GiB Duration.............: 01:48:45.268 (HH:MM:SS.FFF) Video Bit Rate.......: 20,147 kbps Video Codec..........: HEVC,Main 10@L5 Frame Rate...........: 23.976 fps Resolution...........: 3836 x 2072 Audio#01.............: English (US) 768 kbps CBR 6channels E-AC-3 (ATMOS) Subtitle#01..........: Spanish (Latin America) Latin America

    美国内战4k(2024年)
    ①网盘资源信息:
    剧情简介: 影片讲述美国在不久的将来,爆发了影响全国的内战。在资深战地摄影师李·史密斯(克斯汀·邓斯特 Kirsten Dunst 饰)的带领下,记者们组成了一支强大的专业团队,穿越战线并设法生存下来。他们驱车前往华盛顿特区,希望在总统向名为 "WF"的军事力量投降之前采访总统。
    7.1

    7 天前/4K(3840x2160)

    特技狂人4k

    File Name............: The.Fall.Guy.2024.2160p.iTunes.WEB-DL.DDP.5.1.Atmos.HDR10+.H.265-4ksj File Size............: 22.30 GiB Duration.............: 02:06:53.451 (HH:MM:SS.FFF) Video Bit Rate.......: 24,420 kbps Video Codec..........: HEVC,Main 10@L5 SMPTE ST 2094 App 4, Version 1, HDR10+ Profile B compatible Frame Rate...........: 23.903 fps Resolution...........: 3836 x 1600 Audio#01.............: English (US) 768 kbps CBR 6channels E-AC-3 (ATMOS) Subtitle#01..........: Spanish (Latin America) Latin America Subtitle#02..........: French (CA) Canada

    特技狂人4k(2024年)
    7.1
    ①网盘资源信息:
    剧情简介:特技演员为爱犯险,翻身做主角。   科尔特·西弗斯(瑞恩·高斯林 Ryan Gosling 饰)是一名特技演员,就跟这个行业的每一个特技演员一样,他常常被炸飞、辗压、破窗而出以及从高处坠落地面,全都是为了娱乐观众。如今,他才刚因为意外受伤几乎被迫无法再从事特技表演,平凡的科尔特必须找到失踪的电影明星汤姆·赖德(亚伦·泰勒-约翰逊 Aaron Taylor-Johnson 饰)、破解一个阴谋,并且赢回他一生挚爱乔迪(艾米莉·布朗特 Emily Blunt 饰)的芳心,同时还要继续当一名特技演员。分身乏术、焦头烂额的他有可能一帆风顺吗?

    4 天前/4K(3840x2160)

    异星战境4k

    Video ID : 1 Format : HEVC Format/Info : High Efficiency Video Coding Format profile : Main 10@L5@Main Codec ID : V_MPEGH/ISO/HEVC Duration : 2 h 0 min Bit rate : 10.8 Mb/s Width : 3 840 pixels Height : 2 160 pixels Display aspect ratio : 16:9 Frame rate mode : Constant Frame rate : 24.000 FPS Color space : YUV Chroma subsampling : 4:2:0 Bit depth : 10 bits Bits/(Pixel*Frame) : 0.054 Stream size : 9.02 GiB (86%) Title : BEN.THE.MEN Language : English Default : Yes Forced : Yes Color range : Limited Color primaries : BT.709 Transfer characteristics : BT.709 Matrix coefficients : BT.709 Audio #1 ID : 2 Format : E-AC-3 JOC Format/Info : Enhanced AC-3 with Joint Object Coding Commercial name : Dolby Digital Plus with Dolby Atmos Codec ID : A_EAC3 Duration : 2 h 0 min Bit rate mode : Constant Bit rate : 768 kb/s Channel(s) : 6 channels Channel layout : L R C LFE Ls Rs Sampling rate : 48.0 kHz Frame rate : 31.250 FPS (1536 SPF) Compression mode : Lossy Stream size : 660 MiB (6%) Title : BTM DDP5.1 Atmos Language : English Service kind : Complete Main Default : Yes Forced : Yes Complexity index : 16 Number of dynamic objects : 15 Bed channel count : 1 channel Bed channel configuration : LFE Dialog Normalization : -26 dB compr : -0.28 dB dialnorm_Average : -26 dB dialnorm_Minimum : -26 dB dialnorm_Maximum : -26 dB Audio #2 ID : 3 Format : E-AC-3 Format/Info : Enhanced AC-3 Commercial name : Dolby Digital Plus Codec ID : A_EAC3 Duration : 2 h 0 min Bit rate mode : Constant Bit rate : 960 kb/s Channel(s) : 6 channels Channel layout : L R C LFE Ls Rs Sampling rate : 48.0 kHz Frame rate : 31.250 FPS (1536 SPF) Compression mode : Lossy Stream size : 825 MiB (8%) Title : BTM DDP5.1 Language : English Service kind : Complete Main Default : No Forced : No Dialog Normalization : -31 dB dialnorm_Average : -31 dB dialnorm_Minimum : -31 dB dialnorm_Maximum : -31 dB

    异星战境4k(2024年)
    ①网盘资源信息:
    剧情简介:在未来世界,军事情报分析师Atlas Shepherd(詹妮弗·洛佩兹 Jennifer Lopez 饰),对AI有着深切的不信任感。她加入了一个任务,试图捕捉一个叛逃的机器人,而这个机器人有着神秘的过去。不过,当计划失败时,她唯一拯救人类未来免受AI侵害的希望就是去相信它。
    6.9

    4 天前/4K(3840x2160)

    孤注一掷4k

    Video ID : 1 Format : AVC Format/Info : Advanced Video Codec Format profile : Main@L5.1 Format settings : CABAC / 4 Ref Frames Format settings, CABAC : Yes Format settings, Reference frames : 4 frames Codec ID : avc1 Codec ID/Info : Advanced Video Coding Duration : 2 h 9 min Bit rate mode : Variable Bit rate : 21.5 Mb/s Maximum bit rate : 120 Mb/s Width : 3 840 pixels Height : 2 160 pixels Display aspect ratio : 16:9 Frame rate mode : Variable Frame rate : 25.000 FPS Minimum frame rate : 17.158 FPS Maximum frame rate : 25.000 FPS Color space : YUV Chroma subsampling : 4:2:0 Bit depth : 8 bits Scan type : Progressive Bits/(Pixel*Frame) : 0.104 Stream size : 19.5 GiB (100%) Color range : Limited Color primaries : BT.709 Transfer characteristics : BT.709 Matrix coefficients : BT.709 Codec configuration box : avcC Audio ID : 2 Format : AAC LC Format/Info : Advanced Audio Codec Low Complexity Codec ID : mp4a-40-2 Duration : 2 h 9 min Bit rate mode : Constant Bit rate : 64.0 kb/s Channel(s) : 2 channels Channel layout : L R Sampling rate : 44.1 kHz Frame rate : 43.066 FPS (1024 SPF) Compression mode : Lossy Stream size : 59.5 MiB (0%) Default : Yes Alternate group : 1

    孤注一掷4k(2023年)
    6.9
    ①网盘资源信息:
    剧情简介:南亚某国,由于当地政府监管不力以及有意纵容,诈骗产业极其昌盛,炒股、挖币、网游、电商、博彩等,各种手段层出不穷,花样百出。某个科技产业园内,诈骗团伙头目陆经理(王传君 饰)张狂傲慢,用诡计和暴力统治着这个血泪王国。程序员潘生(张艺兴 饰)离开之前的公司,根据高薪招聘启示 走入了陆经理设下的圈套,成为一名利用网络诈骗的狗推。因为羡慕闺蜜的生活,模特梁安娜(金晨 饰)也飞到异国他乡寻找机会,结果护照被没收,成为陆经理手下利用美色诈骗的工具。进入人间炼狱,仿佛再也见不到活着出去的希望……   电影取材自上万起真实诈骗案例。


2015-2023 www.4ksj.com  4K世界 |网站地图
京ICP证160991号 京公网安备11010802015683号 Copyright ©2023 All Rights Reserved.
    *本站提供的所有电影资源均来自互联网,仅限交流使用,请在下载后的2小时内删除,所有版权皆属原公司所有,如果认为本站侵犯了您的版权,请告知,我们会立即删除。