注册/登陆
游客您好
第三方账号登陆
[观影] potplayer+lav+madVR播放视频老是掉帧,请大神解答!!!
[复制链接]
2023-11-09 发布
  • 4K入门玩家
  • 20
  • 349
七毛钱你要不要 发表于 2023-11-9 17:53:27 |阅读模式 打印 上一主题 下一主题
如图,CPU和显卡性能绝对够的,但不管是播放4K原盘还是压缩过的web-dl资源,都会掉帧,没有延迟帧,附上madVR设置,请论坛里大神帮忙解答!!!
更多图片 小图 大图
组图打开中,请稍候......

精彩评论8

 楼主| 七毛钱你要不要 发表于 2023-11-9 17:55:39
General
Complete name                  : D:\迅雷下载\[4ksj.net]碟中谍7:致命清算(上)Mission.Impossible.Dead.Reckoning.Part.One.2023.UHD.Blu-ray.2160p.HEVC.Atmos.TrueHD.7.1-[DIY原盘普通话][简繁双语四字幕][BDJ菜单修改]-4K世界\BDMV\PLAYLIST\00040.mpls
Format                         : Blu-ray Playlist
File size                      : 910 Bytes
Duration                       : 2 h 43 min
Overall bit rate mode          : Variable
Overall bit rate               : 1 b/s
Frame rate                     : 23.976 FPS

Video #1
ID                             : 4113 (0x1011)
Menu ID                        : 1 (0x1)
Format                         : HEVC
Format/Info                    : High Efficiency Video Coding
Format profile                 : Main 10@L5.1@High
HDR format                     : SMPTE ST 2086, HDR10 compatible
Codec ID                       : 36
Duration                       : 2 h 43 min
Width                          : 3 840 pixels
Height                         : 2 160 pixels
Display aspect ratio           : 16:9
Frame rate                     : 23.976 (24000/1001) FPS
Color space                    : YUV
Chroma subsampling             : 4:2:0 (Type 2)
Bit depth                      : 10 bits
Color range                    : Limited
Color primaries                : BT.2020
Transfer characteristics       : PQ
Matrix coefficients            : BT.2020 non-constant
Mastering display color primar : Display P3
Mastering display luminance    : min: 0.0050 cd/m2, max: 4000 cd/m2
Maximum Content Light Level    : 997 cd/m2
Maximum Frame-Average Light Le : 382 cd/m2
format_identifier              : HDMV
Source                         : 00294.m2ts

Video #2
ID                             : 4117 (0x1015)
Menu ID                        : 1 (0x1)
Format                         : HEVC
Format/Info                    : High Efficiency Video Coding
Format profile                 : Main 10@L5.1@High
HDR format                     : SMPTE ST 2086, HDR10 compatible
Codec ID                       : 36
Duration                       : 2 h 43 min
Width                          : 1 920 pixels
Height                         : 1 080 pixels
Display aspect ratio           : 16:9
Frame rate                     : 23.976 (24000/1001) FPS
Color space                    : YUV
Chroma subsampling             : 4:2:0 (Type 2)
Bit depth                      : 10 bits
Color range                    : Limited
Color primaries                : BT.2020
Transfer characteristics       : PQ
Matrix coefficients            : BT.2020 non-constant
Mastering display color primar : Display P3
Mastering display luminance    : min: 0.0050 cd/m2, max: 4000 cd/m2
format_identifier              : HDMV
Source                         : 00294.m2ts

Audio #1
ID                             : 4352 (0x1100)
Menu ID                        : 1 (0x1)
Format                         : MLP FBA AC-3 16-ch
Format/Info                    : Meridian Lossless Packing FBA
Commercial name                : Dolby TrueHD with Dolby Atmos
Muxing mode                    : Stream extension
Codec ID                       : 131
Duration                       : 2 h 43 min
Bit rate mode                  : Variable
Bit rate                       : 448 kb/s
Maximum bit rate               : 5 211 kb/s
Channel(s)                     : 8 channels
Channel layout                 : L R C LFE Ls Rs Lb Rb
Sampling rate                  : 48.0 kHz
Frame rate                     : 31.250 FPS (1536 SPF)
Compression mode               : Lossless
Stream size                    : 524 MiB
Language                       : English
Service kind                   : Complete Main
Number of dynamic objects      : 11
Bed channel count              : 1
Bed channel count              : 1 channel
Bed channel configuration      : LFE
bsid                           : 6
Dialog Normalization           : -27
Dialog Normalization           : -27 dB
compr                          : 1.94
compr                          : 1.94 dB
dynrng                         : 1.26
dynrng                         : 1.26 dB
acmod                          : 7
lfeon                          : 1
dialnorm_Average               : -27
dialnorm_Average               : -27 dB
dialnorm_Minimum               : -27
dialnorm_Minimum               : -27 dB
dialnorm_Maximum               : -27
dialnorm_Maximum               : -27 dB
dialnorm_Count                 : 409
compr_Average                  : 4.14
compr_Average                  : 4.14 dB
compr_Minimum                  : 0.53
compr_Minimum                  : 0.53 dB
compr_Maximum                  : 6.02
compr_Maximum                  : 6.02 dB
compr_Count                    : 278
dynrng_Average                 : 3.16
dynrng_Average                 : 3.16 dB
dynrng_Minimum                 : 0.00
dynrng_Minimum                 : 0.00 dB
dynrng_Maximum                 : 6.02
dynrng_Maximum                 : 6.02 dB
dynrng_Count                   : 409
format_identifier              : AC-3
Source                         : 00294.m2ts

Audio #2
ID                             : 4353 (0x1101)
Menu ID                        : 1 (0x1)
Format                         : AC-3
Format/Info                    : Audio Coding 3
Commercial name                : Dolby Digital
Codec ID                       : 129
Duration                       : 2 h 43 min
Bit rate mode                  : Constant
Bit rate                       : 640 kb/s
Channel(s)                     : 6 channels
Channel layout                 : L R C LFE Ls Rs
Sampling rate                  : 48.0 kHz
Frame rate                     : 31.250 FPS (1536 SPF)
Compression mode               : Lossy
Stream size                    : 748 MiB
Language                       : English
Service kind                   : Complete Main
bsid                           : 6
Dialog Normalization           : -27
Dialog Normalization           : -27 dB
compr                          : 1.94
compr                          : 1.94 dB
dynrng                         : 1.26
dynrng                         : 1.26 dB
acmod                          : 7
lfeon                          : 1
dialnorm_Average               : -27
dialnorm_Average               : -27 dB
dialnorm_Minimum               : -27
dialnorm_Minimum               : -27 dB
dialnorm_Maximum               : -27
dialnorm_Maximum               : -27 dB
dialnorm_Count                 : 408
compr_Average                  : 4.25
compr_Average                  : 4.25 dB
compr_Minimum                  : 0.53
compr_Minimum                  : 0.53 dB
compr_Maximum                  : 5.74
compr_Maximum                  : 5.74 dB
compr_Count                    : 198
dynrng_Average                 : 2.58
dynrng_Average                 : 2.58 dB
dynrng_Minimum                 : 0.00
dynrng_Minimum                 : 0.00 dB
dynrng_Maximum                 : 5.60
dynrng_Maximum                 : 5.60 dB
dynrng_Count                   : 395
format_identifier              : AC-3
Source                         : 00294.m2ts

Audio #3
ID                             : 4354 (0x1102)
Menu ID                        : 1 (0x1)
Format                         : AC-3
Format/Info                    : Audio Coding 3
Commercial name                : Dolby Digital
Codec ID                       : 129
Duration                       : 2 h 43 min
Bit rate mode                  : Constant
Bit rate                       : 640 kb/s
Channel(s)                     : 6 channels
Channel layout                 : L R C LFE Ls Rs
Sampling rate                  : 48.0 kHz
Frame rate                     : 31.250 FPS (1536 SPF)
Compression mode               : Lossy
Stream size                    : 748 MiB
Language                       : Spanish
Service kind                   : Complete Main
bsid                           : 6
Dialog Normalization           : -27
Dialog Normalization           : -27 dB
compr                          : 1.94
compr                          : 1.94 dB
dynrng                         : 1.26
dynrng                         : 1.26 dB
acmod                          : 7
lfeon                          : 1
dialnorm_Average               : -27
dialnorm_Average               : -27 dB
dialnorm_Minimum               : -27
dialnorm_Minimum               : -27 dB
dialnorm_Maximum               : -27
dialnorm_Maximum               : -27 dB
dialnorm_Count                 : 408
compr_Average                  : 3.74
compr_Average                  : 3.74 dB
compr_Minimum                  : 0.53
compr_Minimum                  : 0.53 dB
compr_Maximum                  : 6.02
compr_Maximum                  : 6.02 dB
compr_Count                    : 335
dynrng_Average                 : 3.23
dynrng_Average                 : 3.23 dB
dynrng_Minimum                 : 0.00
dynrng_Minimum                 : 0.00 dB
dynrng_Maximum                 : 6.02
dynrng_Maximum                 : 6.02 dB
dynrng_Count                   : 408
format_identifier              : AC-3
Source                         : 00294.m2ts

Audio #4
ID                             : 4355 (0x1103)
Menu ID                        : 1 (0x1)
Format                         : MLP FBA AC-3 16-ch
Format/Info                    : Meridian Lossless Packing FBA
Commercial name                : Dolby TrueHD with Dolby Atmos
Muxing mode                    : Stream extension
Codec ID                       : 131
Duration                       : 2 h 43 min
Bit rate mode                  : Variable
Bit rate                       : 448 kb/s
Maximum bit rate               : 5 217 kb/s
Channel(s)                     : 8 channels
Channel layout                 : L R C LFE Ls Rs Lb Rb
Sampling rate                  : 48.0 kHz
Frame rate                     : 31.250 FPS (1536 SPF)
Compression mode               : Lossless
Stream size                    : 524 MiB
Language                       : French
Service kind                   : Complete Main
Number of dynamic objects      : 11
Bed channel count              : 1
Bed channel count              : 1 channel
Bed channel configuration      : LFE
bsid                           : 6
Dialog Normalization           : -27
Dialog Normalization           : -27 dB
compr                          : 1.94
compr                          : 1.94 dB
dynrng                         : 1.26
dynrng                         : 1.26 dB
acmod                          : 7
lfeon                          : 1
dialnorm_Average               : -27
dialnorm_Average               : -27 dB
dialnorm_Minimum               : -27
dialnorm_Minimum               : -27 dB
dialnorm_Maximum               : -27
dialnorm_Maximum               : -27 dB
dialnorm_Count                 : 409
compr_Average                  : 3.70
compr_Average                  : 3.70 dB
compr_Minimum                  : 0.53
compr_Minimum                  : 0.53 dB
compr_Maximum                  : 6.02
compr_Maximum                  : 6.02 dB
compr_Count                    : 336
dynrng_Average                 : 3.20
dynrng_Average                 : 3.20 dB
dynrng_Minimum                 : 0.27
dynrng_Minimum                 : 0.27 dB
dynrng_Maximum                 : 6.02
dynrng_Maximum                 : 6.02 dB
dynrng_Count                   : 409
format_identifier              : AC-3
Source                         : 00294.m2ts

Audio #5
ID                             : 4356 (0x1104)
Menu ID                        : 1 (0x1)
Format                         : AC-3
Format/Info                    : Audio Coding 3
Commercial name                : Dolby Digital
Codec ID                       : 129
Duration                       : 2 h 43 min
Bit rate mode                  : Constant
Bit rate                       : 640 kb/s
Channel(s)                     : 6 channels
Channel layout                 : L R C LFE Ls Rs
Sampling rate                  : 48.0 kHz
Frame rate                     : 31.250 FPS (1536 SPF)
Compression mode               : Lossy
Stream size                    : 748 MiB
Language                       : French
Service kind                   : Complete Main
bsid                           : 6
Dialog Normalization           : -27
Dialog Normalization           : -27 dB
compr                          : 1.94
compr                          : 1.94 dB
dynrng                         : 1.26
dynrng                         : 1.26 dB
acmod                          : 7
lfeon                          : 1
dialnorm_Average               : -27
dialnorm_Average               : -27 dB
dialnorm_Minimum               : -27
dialnorm_Minimum               : -27 dB
dialnorm_Maximum               : -27
dialnorm_Maximum               : -27 dB
dialnorm_Count                 : 408
compr_Average                  : 3.76
compr_Average                  : 3.76 dB
compr_Minimum                  : 0.53
compr_Minimum                  : 0.53 dB
compr_Maximum                  : 6.02
compr_Maximum                  : 6.02 dB
compr_Count                    : 331
dynrng_Average                 : 3.23
dynrng_Average                 : 3.23 dB
dynrng_Minimum                 : 0.00
dynrng_Minimum                 : 0.00 dB
dynrng_Maximum                 : 6.02
dynrng_Maximum                 : 6.02 dB
dynrng_Count                   : 408
format_identifier              : AC-3
Source                         : 00294.m2ts

Audio #6
ID                             : 4357 (0x1105)
Menu ID                        : 1 (0x1)
Format                         : AC-3
Format/Info                    : Audio Coding 3
Commercial name                : Dolby Digital
Codec ID                       : 129
Duration                       : 2 h 43 min
Bit rate mode                  : Constant
Bit rate                       : 224 kb/s
Channel(s)                     : 2 channels
Channel layout                 : L R
Sampling rate                  : 48.0 kHz
Frame rate                     : 31.250 FPS (1536 SPF)
Compression mode               : Lossy
Stream size                    : 262 MiB
Language                       : English
Service kind                   : Complete Main
bsid                           : 8
Dialog Normalization           : -31
Dialog Normalization           : -31 dB
compr                          : -0.28
compr                          : -0.28 dB
dsurmod                        : 0
acmod                          : 2
lfeon                          : 0
dialnorm_Average               : -31
dialnorm_Average               : -31 dB
dialnorm_Minimum               : -31
dialnorm_Minimum               : -31 dB
dialnorm_Maximum               : -31
dialnorm_Maximum               : -31 dB
dialnorm_Count                 : 408
compr_Average                  : 2.46
compr_Average                  : 2.46 dB
compr_Minimum                  : -4.08
compr_Minimum                  : -4.08 dB
compr_Maximum                  : 5.74
compr_Maximum                  : 5.74 dB
compr_Count                    : 388
dynrng_Average                 : 2.46
dynrng_Average                 : 2.46 dB
dynrng_Minimum                 : -4.08
dynrng_Minimum                 : -4.08 dB
dynrng_Maximum                 : 5.88
dynrng_Maximum                 : 5.88 dB
dynrng_Count                   : 404
format_identifier              : AC-3
Source                         : 00294.m2ts

Audio #7
ID                             : 4358 (0x1106)
Menu ID                        : 1 (0x1)
Format                         : AC-3
Format/Info                    : Audio Coding 3
Commercial name                : Dolby Digital
Codec ID                       : 129
Duration                       : 2 h 43 min
Bit rate mode                  : Constant
Bit rate                       : 640 kb/s
Channel(s)                     : 6 channels
Channel layout                 : L R C LFE Ls Rs
Sampling rate                  : 48.0 kHz
Frame rate                     : 31.250 FPS (1536 SPF)
Compression mode               : Lossy
Stream size                    : 748 MiB
Language                       : English
Service kind                   : Complete Main
bsid                           : 8
Dialog Normalization           : -31
Dialog Normalization           : -31 dB
compr                          : -0.28
compr                          : -0.28 dB
acmod                          : 7
lfeon                          : 1
dialnorm_Average               : -31
dialnorm_Average               : -31 dB
dialnorm_Minimum               : -31
dialnorm_Minimum               : -31 dB
dialnorm_Maximum               : -31
dialnorm_Maximum               : -31 dB
dialnorm_Count                 : 408
compr_Average                  : 3.36
compr_Average                  : 3.36 dB
compr_Minimum                  : 0.53
compr_Minimum                  : 0.53 dB
compr_Maximum                  : 6.02
compr_Maximum                  : 6.02 dB
compr_Count                    : 401
dynrng_Average                 : 3.31
dynrng_Average                 : 3.31 dB
dynrng_Minimum                 : 0.00
dynrng_Minimum                 : 0.00 dB
dynrng_Maximum                 : 6.02
dynrng_Maximum                 : 6.02 dB
dynrng_Count                   : 408
format_identifier              : AC-3
Source                         : 00294.m2ts

Audio #8
ID                             : 4359 (0x1107)
Menu ID                        : 1 (0x1)
Format                         : AC-3
Format/Info                    : Audio Coding 3
Commercial name                : Dolby Digital
Codec ID                       : 129
Duration                       : 2 h 43 min
Bit rate mode                  : Constant
Bit rate                       : 256 kb/s
Channel(s)                     : 6 channels
Channel layout                 : L R C LFE Ls Rs
Sampling rate                  : 48.0 kHz
Frame rate                     : 31.250 FPS (1536 SPF)
Compression mode               : Lossy
Stream size                    : 299 MiB
Language                       : Chinese
Service kind                   : Complete Main
bsid                           : 8
Dialog Normalization           : -31
Dialog Normalization           : -31 dB
acmod                          : 7
lfeon                          : 1
dialnorm_Average               : -31
dialnorm_Average               : -31 dB
dialnorm_Minimum               : -31
dialnorm_Minimum               : -31 dB
dialnorm_Maximum               : -31
dialnorm_Maximum               : -31 dB
dialnorm_Count                 : 408
format_identifier              : AC-3
Source                         : 00294.m2ts

Text #1
ID                             : 4768 (0x12A0)
Menu ID                        : 1 (0x1)
Format                         : PGS
Codec ID                       : 144
Duration                       : 2 h 43 min
Language                       : English
Source                         : 00294.m2ts

Text #2
ID                             : 4769 (0x12A1)
Menu ID                        : 1 (0x1)
Format                         : PGS
Codec ID                       : 144
Duration                       : 2 h 43 min
Language                       : English
Source                         : 00294.m2ts

Text #3
ID                             : 4770 (0x12A2)
Menu ID                        : 1 (0x1)
Format                         : PGS
Codec ID                       : 144
Duration                       : 2 h 43 min
Language                       : Danish
Source                         : 00294.m2ts

Text #4
ID                             : 4771 (0x12A3)
Menu ID                        : 1 (0x1)
Format                         : PGS
Codec ID                       : 144
Duration                       : 2 h 43 min
Language                       : Spanish
Source                         : 00294.m2ts

Text #5
ID                             : 4772 (0x12A4)
Menu ID                        : 1 (0x1)
Format                         : PGS
Codec ID                       : 144
Duration                       : 2 h 43 min
Language                       : French
Source                         : 00294.m2ts

Text #6
ID                             : 4773 (0x12A5)
Menu ID                        : 1 (0x1)
Format                         : PGS
Codec ID                       : 144
Duration                       : 2 h 43 min
Language                       : French
Source                         : 00294.m2ts

Text #7
ID                             : 4774 (0x12A6)
Menu ID                        : 1 (0x1)
Format                         : PGS
Codec ID                       : 144
Duration                       : 2 h 43 min
Language                       : Dutch
Source                         : 00294.m2ts

Text #8
ID                             : 4775 (0x12A7)
Menu ID                        : 1 (0x1)
Format                         : PGS
Codec ID                       : 144
Duration                       : 2 h 43 min
Language                       : Norwegian
Source                         : 00294.m2ts

Text #9
ID                             : 4776 (0x12A8)
Menu ID                        : 1 (0x1)
Format                         : PGS
Codec ID                       : 144
Duration                       : 2 h 43 min
Language                       : Finnish
Source                         : 00294.m2ts

Text #10
ID                             : 4777 (0x12A9)
Menu ID                        : 1 (0x1)
Format                         : PGS
Codec ID                       : 144
Duration                       : 2 h 43 min
Language                       : Swedish
Source                         : 00294.m2ts

Text #11
ID                             : 4778 (0x12AA)
Menu ID                        : 1 (0x1)
Format                         : PGS
Codec ID                       : 144
Duration                       : 2 h 43 min
Language                       : Chinese
Source                         : 00294.m2ts

Text #12
ID                             : 4779 (0x12AB)
Menu ID                        : 1 (0x1)
Format                         : PGS
Codec ID                       : 144
Duration                       : 2 h 43 min
Language                       : Chinese
Source                         : 00294.m2ts

Text #13
ID                             : 4780 (0x12AC)
Menu ID                        : 1 (0x1)
Format                         : PGS
Codec ID                       : 144
Duration                       : 2 h 43 min
Language                       : Chinese
Source                         : 00294.m2ts

Text #14
ID                             : 4781 (0x12AD)
Menu ID                        : 1 (0x1)
Format                         : PGS
Codec ID                       : 144
Duration                       : 2 h 43 min
Language                       : Chinese
Source                         : 00294.m2ts

Text #15
ID                             : 4782 (0x12AE)
Menu ID                        : 1 (0x1)
Format                         : PGS
Codec ID                       : 144
Duration                       : 2 h 43 min
Delay relative to video        : 2 s 252 ms
Language                       : English
Source                         : 00294.m2ts

Text #16
ID                             : 4783 (0x12AF)
Menu ID                        : 1 (0x1)
Format                         : PGS
Codec ID                       : 144
Duration                       : 2 h 43 min
Delay relative to video        : 2 s 252 ms
Language                       : Spanish
Source                         : 00294.m2ts

Text #17
ID                             : 4784 (0x12B0)
Menu ID                        : 1 (0x1)
Format                         : PGS
Codec ID                       : 144
Duration                       : 2 h 43 min
Delay relative to video        : 2 s 252 ms
Language                       : French
Source                         : 00294.m2ts

Text #18
ID                             : 4785 (0x12B1)
Menu ID                        : 1 (0x1)
Format                         : PGS
Codec ID                       : 144
Duration                       : 2 h 43 min
Delay relative to video        : 2 s 252 ms
Language                       : French
Source                         : 00294.m2ts

Menu
00:00:00.000                   : Chapter 1
00:07:23.776                   : Chapter 2
00:15:48.322                   : Chapter 3
00:28:03.556                   : Chapter 4
00:32:36.287                   : Chapter 5
00:45:36.608                   : Chapter 6
00:55:57.270                   : Chapter 7
01:08:52.670                   : Chapter 8
01:17:42.824                   : Chapter 9
01:31:15.845                   : Chapter 10
01:41:37.591                   : Chapter 11
01:51:37.732                   : Chapter 12
02:01:39.583                   : Chapter 13
02:14:11.043                   : Chapter 14
02:21:30.565                   : Chapter 15
02:35:25.816                   : Chapter 16
02:43:25.545                   : Chapter 17

回复 支持 反对

使用道具 举报

dipingxian2023 发表于 2023-11-10 16:51:18
不清楚你的电脑配置,我的是I5-6500,之前播放4k卡,后来增加了一根内存条播放就变得流畅了。
回复 支持 反对

使用道具 举报

 楼主| 七毛钱你要不要 发表于 2023-11-10 19:25:56
dipingxian2023 发表于 2023-11-10 16:51
不清楚你的电脑配置,我的是I5-6500,之前播放4k卡,后来增加了一根内存条播放就变得流畅了。

我的电脑CPU是i5-13600K,显卡是3060ti,内存32G,肯定不是电脑配置不够。
回复 支持 反对

使用道具 举报

flytosun 发表于 2023-11-11 22:40:51
24帧的电影被你整成240了,而且我看才掉了2帧,后面如果不会继续掉,就没问题了,完全够了。
回复 支持 反对

使用道具 举报

七彩黄山 发表于 2023-11-12 09:11:00
七毛钱你要不要 发表于 2023-11-9 17:55
General
Complete name                  : D:\迅雷下载\[4ksj.net]碟中谍7:致命清算(上)Mission.Impos ...

是设置上的问题,他是7.1声道,但是你的音频输出才是两声道。
回复 支持 反对

使用道具 举报

 楼主| 七毛钱你要不要 发表于 2023-11-13 17:54:16
七彩黄山 发表于 2023-11-12 09:11
是设置上的问题,他是7.1声道,但是你的音频输出才是两声道。

lav合成2声道的
回复 支持 反对

使用道具 举报

dipingxian2023 发表于 2023-11-14 15:07:03
七毛钱你要不要 发表于 2023-11-10 19:25
我的电脑CPU是i5-13600K,显卡是3060ti,内存32G,肯定不是电脑配置不够。

你可以换一个播放器试试比如potplayer或者VLC media player之类的播放器
回复 支持 反对

使用道具 举报

 楼主| 七毛钱你要不要 发表于 2023-11-14 19:04:19
dipingxian2023 发表于 2023-11-14 15:07
你可以换一个播放器试试比如potplayer或者VLC media player之类的播放器

用的就是potplayer
回复 支持 反对

使用道具 举报

您需要登录后才可以回帖 登录 | 立即注册

本版积分规则

推荐影视全站推荐影视下载
  • 6.1

    3 天前/4K(3840x2160)

    哈丽特4k

    Disc Title: HARRIET Disc Label: Harriet.2019.2160p.UHD.Blu-ray.HEVC.TrueHD.Atmos.7.1 Disc Size: 57,624,940,050 bytes Protection: AACS2 Playlist: 00000.MPLS Size: 52,566,663,168 bytes Length: 2:05:07.082 Total Bitrate: 56.02 Mbps Video: MPEG-H HEVC Video / 46999 kbps / 2160p / 23.976 fps / 16:9 / Main 10 @ Level 5.1 @ High / 10 bits / HDR10 / BT.2020 Audio: English / Dolby TrueHD/Atmos Audio / 7.1 / 48 kHz / 3331 kbps / 16-bit (AC3 Embedded: 5.1 / 48 kHz / 448 kbps / DN -27dB) Audio: French / Dolby Digital Audio / 5.1 / 48 kHz / 640 kbps / DN -27dB Audio: Spanish / Dolby Digital Plus Audio / 7.1 / 48 kHz / 768 kbps / DN -27dB (AC3 Embedded: 5.1 / 48 kHz / 448 kbps / DN -27dB) Audio: English / Dolby Digital Audio / 2.0 / 48 kHz / 192 kbps / DN -27dB Subtitle: English / 34.163 kbps Subtitle: French / 30.708 kbps Subtitle: Spanish / 28.135 kbps Subtitle: French / 0.850 kbps Subtitle: Spanish / 1.099 kbps

    哈丽特4k(2019年)
    6.1
    ①网盘资源信息:
    剧情简介:乔·阿尔文、小莱斯利·奥多姆将加盟传记影片[哈丽特],先前宣布加盟的卡司包括辛西娅·埃里沃、克拉克·彼得斯等。塞斯·曼恩(《国土安全》)执导。哈丽特·塔布曼生于1822年,原本是生活在马里兰州的黑奴,1849年她逃到北方,不久后加入到帮助奴隶逃亡的美国“地下铁路”中,成为最活跃的领袖之一,多次回到家乡带领其他奴隶逃往北方。南北战争爆发后,塔布曼积极参战,成为北军中为数不多的女性,战后她投身了争取妇女权益的运动。哈丽特也是首位登上美元的女性。影片将于下月在美国弗吉尼亚州开拍。
    7.0

    4 天前/4K(3840x2160)

    饥饿游戏:鸣鸟与蛇之歌4K

    Video #1 ID: 4113 (0x1011) Menu ID: 1 (0x1) Format: HEVC Format/Info: High Efficiency Video Coding Format profile: Main 10@L5.1@High HDR format: SMPTE ST 2086, HDR10 compatible Codec ID: 36 Duration: 2h 37m Width: 3840 pixels Height: 2160 pixels Display aspect ratio: 16:9 Frame rate: 23.976 (24000/1001) FPS Color space: YUV Chroma subsampling: 4:2:0 (Type 2) Bit depth: 10 bits Color range: Limited Color primaries: BT.2020 Transfer characteristics: PQ Matrix coefficients: BT.2020 non-constant Mastering display color primaries: Display P3 Mastering display luminance: min: 0.0001 cd/m2, max: 1000 cd/m2 Maximum Content Light Level: 999 cd/m2 Maximum Frame-Average Light Level: 122 cd/m2 Video #2 (Dolby Vision) ID: 4117 (0x1015) Menu ID: 1 (0x1) Format: HEVC Format/Info: High Efficiency Video Coding Format profile: Main 10@L5.1@High HDR format: SMPTE ST 2086, HDR10 compatible Codec ID: 36 Duration: 2h 37m Width: 1920 pixels Height: 1080 pixels Display aspect ratio: 16:9 Frame rate: 23.976 (24000/1001) FPS Color space: YUV Chroma subsampling: 4:2:0 (Type 2) Bit depth: 10 bits Color range: Limited Color primaries: BT.2020 Transfer characteristics: PQ Matrix coefficients: BT.2020 non-constant Mastering display color primaries: Display P3 Mastering display luminance: min: 0.0001 cd/m2, max: 1000 cd/m2 Audio #1 ID: 4352 (0x1100) Menu ID: 1 (0x1) Format: MLP FBA AC-3 16-ch Format/Info: Meridian Lossless Packing FBA with 16-channel presentation Commercial name: Dolby TrueHD with Dolby Atmos Muxing mode: Stream extension Codec ID: 131 Duration: 2h 37m Bit rate mode: Variable Bit rate: 640 kb/s Maximum bit rate: 7395 kb/s Channel(s): 8 channels Channel layout: L R C LFE Ls Rs Lb Rb Sampling rate: 48.0 kHz Frame rate: 31.250 FPS (1536 SPF) Compression mode: Lossless Stream size: 719 MiB (1%) Service kind: Complete Main Number of dynamic objects: 11 Bed channel count: 1 channel Bed channel configuration: LFE

    ①网盘资源信息:
    剧情简介:8岁的科里奥兰纳斯·斯诺(汤姆·布莱斯 饰)被选为第十届饥饿游戏的导师,与来自第十二区的贫困女孩露西·格蕾·贝尔德(瑞秋·齐格勒 饰)成为了“生死相依”的命运共同体。竞技场上,这是一场关乎自由、食物,甚至是尊重与权利的生死角逐;竞技场外,不忍与善意使斯诺决定不顾一切帮助露西在这场游戏中赢得胜利......当活下去的欲望与所遵守的规则背道而驰,命运的齿轮紧抓入自己手中时,他又该如何抉择?   影片改编自苏珊·柯林斯的同名小说。
    6.2

    4 天前/4K(3840x2160)

    金手指4k

    General............: The.Goldfinger.2023.2160p.HQ.WEB-DL.H265.60fps.DDP5.1.2Audio-4ksj Duration...........: 02:05:47.031 (HH:MM:SS:FF) RELEASE.SIZE.......: 23.6 GiB VIDEO.CODEC........: HEVC Main 10@L5.1@Main FRAMERATE..........: 60.000 fps VIDEO.BITRATE......: 24.9 Mb/s RESOLUTION.........: 3840 x 1608 ASPECT.RATIO.......: 2.40:1 Audio..............: E-AC-3 6 channels 448 kb/s Chinese Cantonese [DDP5.1] Audio..............: E-AC-3 6 channels 448 kb/s Chinese Mandarin [DDP5.1] Audio..............: E-AC-3 2 channels 256 kb/s Chinese Cantonese [DDP2.0] Audio..............: E-AC-3 2 channels 256 kb/s Chinese Mandarin [DDP2.0] Audio..............: AAC 2 channels 256 kb/s Chinese Cantonese [AAC2.0] Audio..............: AAC 2 channels 256 kb/s Chinese Mandarin [AAC2.0]

    金手指4k(2023年)
    6.2
    ①网盘资源信息:
    剧情简介:用100元的投入换来百亿奢靡人生,看穷小子不择手段颠覆规则将财富和权势玩弄于股掌之中!上市公司嘉文集团在短短几年间从默默无名到风生水起,再到没落清盘,市值蒸发超过一百亿。幕后老板程一言(梁朝伟 饰)也从万众瞩目的股民偶像变成人人喊打的过街老鼠。高级调查主任刘启源(刘德华 饰)长达十五年锲而不舍地搜证和跨境调查,消耗超过两亿诉讼费,竟发现局中有局案中有案,牵涉数条人命并波及香港整个上流社会,究竟谁在幕后?谁能逃脱?谁会出局?
    8.6

    7 天前/4K(3840x2160)

    王立宇宙军:欧尼亚米斯之翼4k

    DISC INFO: Disc Title: Royal.Space.Force.Wings.of.Honneamise.1987.2160p.UHD.Blu-ray.HEVC.TrueHD5.1-4ksj Disc Size: 97,507,860,070 bytes Protection: AACS2 Extras: Ultra HD BDInfo: 0.7.6.1 (compatible layout created by DVDFab 12.1.1.5) PLAYLIST REPORT: Name: 00001.MPLS Length: 1:59:50.183 (h:m:s.ms) Size: 96,049,711,104 bytes Total Bitrate: 106.87 Mbps VIDEO: Codec Bitrate Description ----- ------- ----------- MPEG-H HEVC Video 94676 kbps 2160p / 23.976 fps / 16:9 / Main 10 @ Level 5.1 @ High / 4:2:0 / 10 bits / 1000nits / HDR10 / BT.2020 AUDIO: Codec Language Bitrate Description ----- -------- ------- ----------- LPCM Audio Japanese 2304 kbps 2.0 / 48 kHz / 2304 kbps / 24-bit Dolby TrueHD Audio Japanese 2376 kbps 5.1 / 48 kHz / 1736 kbps / 16-bit (AC3 Core: 5.1 / 48 kHz / 640 kbps) LPCM Audio English 1536 kbps 2.0 / 48 kHz / 1536 kbps / 16-bit SUBTITLES: Codec Language Bitrate Description ----- -------- ------- ----------- Presentation Graphics English 28.952 kbps Presentation Graphics Japanese 19.983 kbps Presentation Graphics Chinese 30.536 kbps Presentation Graphics Chinese 31.649 kbps

    ①网盘资源信息:
    剧情简介:在奥内米斯王国里,有一支本应担任宇宙探险飞行的军队——王立宇宙军。但由于种种因素,他们始终只是一支无所作为的军队,甚至被其他军队视为废物。原本安于现状,只是在军队中混日子的年轻士官希洛兹(森本玲夫 配音),与美丽的少女莉库妮(弥生みつき 配音)邂逅,被她的单纯与虔诚所吸引,逐渐开始改变自己的人生态度——成为第一个探索宇宙的人,让“王立宇宙军”成为名副其实的宇宙探索者。   但现实是残酷的,奥内米斯王国内部的腐败使他们的信念一次次受挫,似乎人们都更关注于地面上丑陋的斗争,虽然王立宇宙军最后得到了飞行的机会,但那确是帝国内部的阴谋,企图牺牲希洛兹搭乘的火箭,以作为和邻国开战的借口。即便这样,希洛兹还是坐上了火箭,他能否看到太空中的日出呢……
    7.9

    6 天前/4K(3840x2160)

    西雅图未眠夜4k

    Video: MPEG-H HEVC Video / 77338 kbps / 2160p / 23.976 fps / 16:9 / Main 10 @ Level 5.1 @ High / 4:2:0 / 10 bits / 2000nits / HDR10 / BT.2020 Video: * MPEG-H HEVC Video / 2100 kbps / 1080p / 23.976 fps / 16:9 / Main 10 @ Level 5.1 @ High / 4:2:0 / 10 bits / 2000nits / Dolby Vision FEL / BT.2020 Audio: English / Dolby TrueHD/Atmos Audio / 7.1+11 objects / 48 kHz / 3948 kbps / 24-bit (AC3 Core: 5.1 / 48 kHz / 640 kbps) Audio: English / DTS-HD Master Audio / 5.1 / 48 kHz / 2148 kbps / 16-bit (DTS Core: 5.1 / 48 kHz / 1509 kbps / 16-bit) Audio: English / DTS-HD Master Audio / 2.0 / 48 kHz / 1555 kbps / 16-bit (DTS Core: 2.0 / 48 kHz / 1509 kbps / 16-bit) Audio: French / DTS-HD Master Audio / 2.0 / 48 kHz / 1555 kbps / 16-bit (DTS Core: 2.0 / 48 kHz / 1509 kbps / 16-bit) Audio: French / DTS-HD Master Audio / 2.0 / 48 kHz / 1556 kbps / 16-bit (DTS Core: 2.0 / 48 kHz / 1509 kbps / 16-bit) Audio: German / DTS-HD Master Audio / 2.0 / 48 kHz / 1556 kbps / 16-bit (DTS Core: 2.0 / 48 kHz / 1509 kbps / 16-bit) Audio: Italian / DTS-HD Master Audio / 2.0 / 48 kHz / 1555 kbps / 16-bit (DTS Core: 2.0 / 48 kHz / 1509 kbps / 16-bit) Audio: Korean / DTS-HD Master Audio / 2.0 / 48 kHz / 1561 kbps / 16-bit (DTS Core: 2.0 / 48 kHz / 1509 kbps / 16-bit) Audio: Spanish / DTS-HD Master Audio / 2.0 / 48 kHz / 1557 kbps / 16-bit (DTS Core: 2.0 / 48 kHz / 1509 kbps / 16-bit) Audio: Spanish / Dolby Digital Audio / 2.0 / 48 kHz / 192 kbps / Dolby Surround Audio: Thai / DTS-HD Master Audio / 2.0 / 48 kHz / 1558 kbps / 16-bit (DTS Core: 2.0 / 48 kHz / 1509 kbps / 16-bit) Audio: Turkish / DTS-HD Master Audio / 2.0 / 48 kHz / 1559 kbps / 16-bit (DTS Core: 2.0 / 48 kHz / 1509 kbps / 16-bit) Subtitle: English / 44.139 kbps Subtitle: English / 33.446 kbps Subtitle: English / 44.151 kbps Subtitle: English / 33.461 kbps Subtitle: Arabic / 17.208 kbps Subtitle: Chinese / 24.02 kbps Subtitle: Chinese / 29.461 kbps Subtitle: Danish / 25.709 kbps Subtitle: Dutch / 26.198 kbps Subtitle: Finnish / 27.629 kbps Subtitle: French / 28.433 kbps Subtitle: German / 28.544 kbps Subtitle: Italian / 26.934 kbps Subtitle: Korean / 21.502 kbps Subtitle: Norwegian / 25.264 kbps Subtitle: Portuguese / 26.138 kbps Subtitle: Spanish / 25.553 kbps Subtitle: Spanish / 31.147 kbps Subtitle: Swedish / 22.422 kbps Subtitle: Thai / 31.84 kbps Subtitle: Turkish / 29.039 kbps Subtitle: French / 0.638 kbps

    西雅图未眠夜4k(90年代)
    7.9
    ①网盘资源信息:
    剧情简介:自从妻子去世后,萨姆(汤姆·汉克斯 Tom Hanks饰)就相信自己此生的爱已经走到了尽头,不会再有新的恋情走进心中,他在西雅图和儿子乔纳一起平静的生活。而乔纳,却一直希望爸爸能够开始新的婚姻,重获生活的阳光。   抱着这样的想法,乔纳在圣诞夜打电话到电台的情感热线。就这样,萨姆的经历在此夜传遍了各个角落,很多人在倾听他的故事,其中包括安妮(梅格·瑞安 Meg Ryan饰)——一个住在东部的女记者。她善良,温柔,有一个知心的好友,和一个即将结婚的男友。然而,幸福的生活就被这个电话彻底打破了。她的内心有一种冲动,让她一步步地接近这个远在西部的男人。   然而,一次次辗转的错过让萨姆和安妮迟迟不能会面。屡次在缘份的天空下失诸交臂的二人,一直为爱而奔波,等待一个遇见的机缘。
2015-2023 www.4ksj.com  4K世界 |网站地图
京ICP证160991号 京公网安备11010802015683号 Copyright ©2023 All Rights Reserved.
    *本站提供的所有电影资源均来自互联网,仅限交流使用,请在下载后的2小时内删除,所有版权皆属原公司所有,如果认为本站侵犯了您的版权,请告知,我们会立即删除。