注册/登陆
游客您好
第三方账号登陆
老无所依4K.No.Country.For.Old.Men.2007.2160p电影下载
[复制链接]
2023-11-28 发布
  • 黄金会员
  • 0
  • 1455
青衫烟雨 发表于 2023-11-28 20:22:46 |阅读模式 打印 上一主题 下一主题

老无所依4K
00年代(豆瓣:8.3)
  • 电影声道:5.1声道 
  • 电影语言:英文字幕   
  • 画质标准 HDR 
  • 资源版本 WEB-DL 4K   
  • 帧数/FPS:23.976 Fps
    发布排行: 第部4K原盘
    导  演:伊桑·科恩 / 乔尔·科恩
    制片国家:美国 
    电影分类:犯罪 惊悚 
    分 辨 率:4K(3840x2160)
简介美国德克萨斯州乡村,老牛仔Moss(乔什·布洛林 饰)在猎杀羚羊时发现几具尸体,几包海洛因和200万现金。Moss决定将毒品和现金占为己有,想以此改变自己的生活,谁知却遭到冷血杀手Chigurh(哈维尔·巴登 饰)的跟踪和追杀,陷入了逃亡的险境。
  同时,当地治安官Bell(汤米·李·琼斯 饰)也在对一连串的杀人事件进行调查,并努力保护Moss的安全。但是,让Bell感到无力绝望的是,他使尽浑身解数也无法追踪到冷血杀手,Moss的生命安全也受到严重的威胁,Bell一边缅怀父辈们的光荣岁月,一边深感现实中老无所依的悲哀。
  • 网盘①


    提取码①
    无链接, 或无权限
    网盘②


    访问码②
    中文字幕


    BT种子 / 磁力链下载
  • 电影信息INFO
    Format : Matroska
    Format version : Version 4
    File size : 47.1 GiB
    Duration : 2 h 2 min
    Overall bit rate mode : Variable
    Overall bit rate : 55.2 Mb/s
    Frame rate : 23.976 FPS
    Movie name : No.Country.For.Old.Men.2007.2160p.HDR.AI.Enhance[Ben The Men]
    Encoded date : 2023-11-27 06:03:36 UTC
    Writing application : mkvmerge v80.0 (\\\\\\\\\\\\\\\\\\\\\\\\\\\\\\\'Roundabout\\\\\\\\\\\\\\\\\\\\\\\\\\\\\\\') 64-bit
    Writing library : libebml v1.4.4 + libmatroska v1.7.1

    Video
    ID : 1
    Format : HEVC
    Format/Info : High Efficiency Video Coding
    Format profile : Main 10@L5.1@High
    HDR format : SMPTE ST 2086, HDR10 compatible
    Codec ID : V_MPEGH/ISO/HEVC
    Duration : 2 h 2 min
    Bit rate : 42.5 Mb/s
    Width : 3 840 pixels
    Height : 2 160 pixels
    Display aspect ratio : 16:9
    Frame rate mode : Constant
    Frame rate : 23.976 (24000/1001) FPS
    Color space : YUV
    Chroma subsampling : 4:2:0 (Type 2)
    Bit depth : 10 bits
    Bits/(Pixel*Frame) : 0.214
    Stream size : 36.3 GiB (77%)
    Title : BEN.THE.MEN
    Default : Yes
    Forced : No
    Color range : Limited
    Color primaries : BT.2020
    Transfer characteristics : PQ
    Matrix coefficients : BT.2020 non-constant
    Mastering display color primaries : BT.2020
    Mastering display luminance : min: 0.0001 cd/m2, max: 1000 cd/m2
    Maximum Content Light Level : 1000 cd/m2
    Maximum Frame-Average Light Level : 400 cd/m2

    Audio #1
    ID : 2
    Format : DTS XLL
    Format/Info : Digital Theater Systems
    Commercial name : DTS-HD Master Audio
    Codec ID : A_DTS
    Duration : 2 h 2 min
    Bit rate mode : Variable
    Bit rate : 1 727 kb/s
    Channel(s) : 6 channels
    Channel layout : C L R Ls Rs LFE
    Sampling rate : 48.0 kHz
    Frame rate : 93.750 FPS (512 SPF)
    Bit depth : 16 bits
    Compression mode : Lossless
    Stream size : 1.47 GiB (3%)
    Title : BTM DTS-HD Master
    Language : English
    Default : No
    Forced : No

    Audio #2
    ID : 3
    Format : E-AC-3
    Format/Info : Enhanced AC-3
    Commercial name : Dolby Digital Plus
    Codec ID : A_EAC3
    Duration : 2 h 2 min
    Bit rate mode : Constant
    Bit rate : 960 kb/s
    Channel(s) : 6 channels
    Channel layout : L R C LFE Ls Rs
    Sampling rate : 48.0 kHz
    Frame rate : 31.250 FPS (1536 SPF)
    Compression mode : Lossy
    Stream size : 839 MiB (2%)
    Title : BTM DDP5.1
    Language : English
    Service kind : Complete Main
    Default : Yes
    Forced : No

    Audio #3
    ID : 4
    Format : E-AC-3
    Format/Info : Enhanced AC-3
    Commercial name : Dolby Digital Plus
    Codec ID : A_EAC3
    Duration : 2 h 2 min
    Bit rate mode : Constant
    Bit rate : 960 kb/s
    Channel(s) : 6 channels
    Channel layout : L R C LFE Ls Rs
    Sampling rate : 48.0 kHz
    Frame rate : 31.250 FPS (1536 SPF)
    Compression mode : Lossy
    Stream size : 839 MiB (2%)
    Title : BTM DDP5.1
    Language : Spanish
    Service kind : Complete Main
    Default : Yes
    Forced : No

    Audio #4
    ID : 5
    Format : DTS XLL
    Format/Info : Digital Theater Systems
    Commercial name : DTS-HD Master Audio
    Codec ID : A_DTS
    Duration : 2 h 2 min
    Bit rate mode : Variable
    Bit rate : 2 367 kb/s
    Channel(s) : 6 channels
    Channel layout : C L R Ls Rs LFE
    Sampling rate : 48.0 kHz
    Frame rate : 93.750 FPS (512 SPF)
    Bit depth : 16 bits
    Compression mode : Lossless
    Stream size : 2.02 GiB (4%)
    Title : BTM DTS-HD Master
    Language : German
    Default : No
    Forced : No

    Audio #5
    ID : 6
    Format : E-AC-3
    Format/Info : Enhanced AC-3
    Commercial name : Dolby Digital Plus
    Codec ID : A_EAC3
    Duration : 2 h 2 min
    Bit rate mode : Constant
    Bit rate : 960 kb/s
    Channel(s) : 6 channels
    Channel layout : L R C LFE Ls Rs
    Sampling rate : 48.0 kHz
    Frame rate : 31.250 FPS (1536 SPF)
    Compression mode : Lossy
    Stream size : 839 MiB (2%)
    Title : BTM DDP5.1
    Language : German
    Service kind : Complete Main
    Default : Yes
    Forced : No

    Audio #6
    ID : 7
    Format : E-AC-3
    Format/Info : Enhanced AC-3
    Commercial name : Dolby Digital Plus
    Codec ID : A_EAC3
    Duration : 2 h 2 min
    Bit rate mode : Constant
    Bit rate : 960 kb/s
    Channel(s) : 6 channels
    Channel layout : L R C LFE Ls Rs
    Sampling rate : 48.0 kHz
    Frame rate : 31.250 FPS (1536 SPF)
    Compression mode : Lossy
    Stream size : 839 MiB (2%)
    Title : BTM DDP5.1
    Language : Czech
    Service kind : Complete Main
    Default : Yes
    Forced : No

    Audio #7
    ID : 8
    Format : E-AC-3
    Format/Info : Enhanced AC-3
    Commercial name : Dolby Digital Plus
    Codec ID : A_EAC3
    Duration : 2 h 2 min
    Bit rate mode : Constant
    Bit rate : 960 kb/s
    Channel(s) : 6 channels
    Channel layout : L R C LFE Ls Rs
    Sampling rate : 48.0 kHz
    Frame rate : 31.250 FPS (1536 SPF)
    Compression mode : Lossy
    Stream size : 839 MiB (2%)
    Title : BTM DDP5.1
    Language : Hungarian
    Service kind : Complete Main
    Default : Yes
    Forced : No

    Audio #8
    ID : 9
    Format : E-AC-3
    Format/Info : Enhanced AC-3
    Commercial name : Dolby Digital Plus
    Codec ID : A_EAC3
    Duration : 2 h 1 min
    Bit rate mode : Constant
    Bit rate : 959 kb/s
    Channel(s) : 6 channels
    Channel layout : L R C LFE Ls Rs
    Sampling rate : 44.1 kHz
    Frame rate : 57.422 FPS (768 SPF)
    Compression mode : Lossy
    Stream size : 837 MiB (2%)
    Title : BTM DDP5.1
    Language : Italian
    Service kind : Complete Main
    Default : Yes
    Forced : No

    Audio #9
    ID : 10
    Format : E-AC-3
    Format/Info : Enhanced AC-3
    Commercial name : Dolby Digital Plus
    Codec ID : A_EAC3
    Duration : 2 h 2 min
    Bit rate mode : Constant
    Bit rate : 960 kb/s
    Channel(s) : 2 channels
    Channel layout : L R
    Sampling rate : 48.0 kHz
    Frame rate : 31.250 FPS (1536 SPF)
    Compression mode : Lossy
    Stream size : 839 MiB (2%)
    Title : BTM DDP 2CH
    Language : Polish
    Service kind : Complete Main
    Default : Yes
    Forced : No

    Audio #10
    ID : 11
    Format : E-AC-3
    Format/Info : Enhanced AC-3
    Commercial name : Dolby Digital Plus
    Codec ID : A_EAC3
    Duration : 2 h 2 min
    Bit rate mode : Constant
    Bit rate : 960 kb/s
    Channel(s) : 6 channels
    Channel layout : L R C LFE Ls Rs
    Sampling rate : 48.0 kHz
    Frame rate : 31.250 FPS (1536 SPF)
    Compression mode : Lossy
    Stream size : 839 MiB (2%)
    Title : BTM DDP5.1
    Language : Russian
    Service kind : Complete Main
    Default : Yes
    Forced : No

    Audio #11
    ID : 12
    Format : E-AC-3
    Format/Info : Enhanced AC-3
    Commercial name : Dolby Digital Plus
    Codec ID : A_EAC3
    Duration : 2 h 2 min
    Bit rate mode : Constant
    Bit rate : 960 kb/s
    Channel(s) : 6 channels
    Channel layout : L R C LFE Ls Rs
    Sampling rate : 48.0 kHz
    Frame rate : 31.250 FPS (1536 SPF)
    Compression mode : Lossy
    Stream size : 839 MiB (2%)
    Title : BTM DDP5.1
    Language : Turkish
    Service kind : Complete Main
    Default : Yes
    Forced : No

2百万夺命奇案(港) / 险路勿近(台) / 人心不古/老无所依.No.Country.For.Old.Men.2007.2160p.HDR.DTS-HD.MA.DDP5.1.x265-4K电影下载


老无所依.No.Country.For.Old.Men.2007.2160P.Ai-Upscaled.10Bit.H265.DTS-HD.MA.5.1.RIFE.4.15-60fps
【磁力链免k币】【29.31 GB】:
magnet:?xt=urn:btih:33d983b0c13e7d2bd748c8c23f702abf3154e9f5&dn
老无所依中文字幕 感谢K友@shine288分享的字幕
https://www.4ksj.com/thread-80945-1-1.html

精彩评论9

沉默的羔羊100 发表于 2023-11-28 20:53:38
沙发
回复 支持 反对

使用道具 举报

chjcyc 发表于 2023-11-29 11:29:21
谢谢分享好片!!!!
回复 支持 反对

使用道具 举报

568817 发表于 2023-11-29 12:22:11
經典好片
回复 支持 反对

使用道具 举报

tomcatf 发表于 2023-11-30 09:18:18
回复 支持 0 反对 1

使用道具 举报

568817 发表于 2023-12-12 22:10:07
whindson 发表于 2023-11-29 10:05
ai放大的,非真正4k

請問怎麼看不是真4K?
回复 支持 反对

使用道具 举报

baud999 发表于 2023-12-12 22:14:36
这个片子怎么样,感觉名字有点熟悉
回复 支持 反对

使用道具 举报

blackwater 发表于 2023-12-14 15:31:04
谢谢楼主的分享
回复 支持 反对

使用道具 举报

您需要登录后才可以回帖 登录 | 立即注册

本版积分规则

推荐影视全站推荐影视下载
  • 8.0

    昨天 10:00/4K(3840x2160)

    兰戈4K

    DISC INFO: Disc Title: Rango.2011.UHD.BluRay.2160p.HEVC.DTS-HD.MA5.1-4KSJ Disc Size: 64,588,791,576 bytes Protection: AACS2 Extras: Ultra HD, BD-Java BDInfo: 0.7.6.1 (compatible layout created by DVDFab 13 13.0.0.2) PLAYLIST REPORT: Name: 00100.MPLS Length: 1:47:14.678 (h:m:s.ms) Size: 64,063,211,520 bytes Total Bitrate: 79.65 Mbps (*) Indicates included stream hidden by this playlist. VIDEO: Codec Bitrate Description ----- ------- ----------- MPEG-H HEVC Video 55198 kbps 2160p / 23.976 fps / 16:9 / Main 10 @ Level 5.1 @ High / 4:2:0 / 10 bits / 1000nits / HDR10 / BT.2020 *MPEG-H HEVC Video 13874 kbps (20.09%) 1080p / 23.976 fps / 16:9 / Main 10 @ Level 5.1 @ High / 4:2:0 / 10 bits / 1000nits / Dolby Vision FEL / BT.2020 AUDIO: Codec Language Bitrate Description ----- -------- ------- ----------- DTS-HD Master Audio English 3920 kbps 5.1 / 48 kHz / 3920 kbps / 24-bit (DTS Core: 5.1 / 48 kHz / 1509 kbps / 24-bit) Dolby Digital Audio German 640 kbps 5.1 / 48 kHz / 640 kbps Dolby Digital Audio French 640 kbps 5.1 / 48 kHz / 640 kbps Dolby Digital Audio Italian 640 kbps 5.1 / 48 kHz / 640 kbps Dolby Digital Audio Japanese 640 kbps 5.1 / 48 kHz / 640 kbps SUBTITLES: Codec Language Bitrate Description ----- -------- ------- ----------- Presentation Graphics English 34.218 kbps Presentation Graphics English 41.03 kbps Presentation Graphics German 35.198 kbps Presentation Graphics Spanish 32.485 kbps Presentation Graphics French 28.143 kbps Presentation Graphics Italian 32.49 kbps Presentation Graphics Japanese 20.807 kbps Presentation Graphics German 0.121 kbps Presentation Graphics French 0.204 kbps Presentation Graphics Italian 0.136 kbps Presentation Graphics Japanese 0.185 kbps

    兰戈4K(00年代)
    8.0
    ①网盘资源信息:
    剧情简介:兰戈(约翰尼·德普 Johnny Depp 配音)是一只干瘦、翠绿的蜥蜴,他住在鱼缸里,蓝天白云椰子树的假相让他倍感无聊,这个酷爱幻想和表演的家伙只得在头脑中编出属于自己的英雄剧。可就在某天,一个意外将他驱赶出惯常的方寸空间,兰戈莫名其妙来到了西部荒原的公路上。在沙漠中穿行的时候,兰戈遭到猎鹰的袭击。经过一番周折,他来到了名为黄沙(Dirt)的小镇,这里住着许多昆虫和动物,破败不堪,宛若死城。兰戈意外干掉了凶恶的猎鹰,由此被镇上的居民视为英雄,他也乐于享受这种荣誉,可是英雄毕竟不好当……
    6.5

    前天 06:00/4K(3840x2160)

    功夫熊猫4 4k

    DISC INFO: Disc Title: Kung.Fu.Panda.4.2024.2160p.UHD.Blu-ray.DoVi.HDR10.HEVC.Atmos.TrueHD7.1-DiY@4KSJ Disc Size: 79,086,865,447 bytes Protection: AACS2 Extras: Ultra HD, BD-Java BDInfo: 0.7.6.1 (compatible layout created by DVDFab 12.1.1.5) PLAYLIST REPORT: Name: 00040.MPLS Length: 1:33:38.613 (h:m:s.ms) Size: 51,146,901,504 bytes Total Bitrate: 72.82 Mbps (*) Indicates included stream hidden by this playlist. VIDEO: Codec Bitrate Description ----- ------- ----------- MPEG-H HEVC Video 54973 kbps 2160p / 23.976 fps / 16:9 / Main 10 @ Level 5.1 @ High / 4:2:0 / 10 bits / 4000nits / HDR10 / BT.2020 * MPEG-H HEVC Video 7134 kbps (11.49%) 1080p / 23.976 fps / 16:9 / Main 10 @ Level 5.1 @ High / 4:2:0 / 10 bits / 4000nits / Dolby Vision FEL / BT.2020 AUDIO: Codec Language Bitrate Description ----- -------- ------- ----------- Dolby TrueHD/Atmos Audio English 3541 kbps 7.1+13 objects / 48 kHz / 3093 kbps / 16-bit (AC3 Core: 5.1 / 48 kHz / 448 kbps) Dolby Digital Plus Audio Spanish 768 kbps 7.1 / 48 kHz / 768 kbps (AC3 Core: 5.1 / 48 kHz / 448 kbps ( Core: 5.1 / 48 kHz / 448 kbps)) Dolby Digital Plus Audio French 768 kbps 7.1 / 48 kHz / 768 kbps (AC3 Core: 5.1-EX / 48 kHz / 448 kbps ( Core: 5.1 / 48 kHz / 448 kbps)) Dolby Digital Audio English 192 kbps 2.0 / 48 kHz / 192 kbps Dolby Digital Audio Chinese 384 kbps 5.1 / 48 kHz / 384 kbps 台版国语配音 Dolby Digital Audio Chinese 384 kbps 2.0 / 48 kHz / 384 kbps 上译国语配音 SUBTITLES: Codec Language Bitrate Description ----- -------- ------- ----------- Presentation Graphics English 52.043 kbps Presentation Graphics Spanish 42.009 kbps Presentation Graphics French 41.008 kbps Presentation Graphics Chinese 32.737 kbps 画面内官译简体中字 Presentation Graphics Chinese 33.792 kbps 画面内官译繁体中字 Presentation Graphics Chinese 34.835 kbps 黑边内上译国配简中 Presentation Graphics Chinese 35.501 kbps 黑边内上译国配繁中 Presentation Graphics Chinese 55.120 kbps 黑边内上译国配简英 Presentation Graphics Chinese 55.791 kbps 黑边内上译国配繁英

    功夫熊猫4 4k(2024年)
    6.5
    ①网盘资源信息:
    剧情简介:神龙大侠阿宝(杰克·布莱克 Jack Black 配音)再度归来,要被师父(达斯汀·霍夫曼 Dustin Hoffman 配音)强行进阶修行。系列全新最强反派魅影妖后(维奥拉·戴维斯 Viola Davis 配音)登场,神秘莫测的她可以幻化成每一个阿宝的昔日宿敌。此次阿宝又结识了小真(奥卡菲娜 Awkwafina 配音)等新伙伴,并将一同开启这场冒险旅程。

    6 天前/4K(3840x2160)

    美国内战4k

    File Name............: Civil.War.2024.2160p.iTunes.WEB-DL.DDP.5.1.Atmos.H.265-4ksj File Size............: 15.90 GiB Duration.............: 01:48:45.268 (HH:MM:SS.FFF) Video Bit Rate.......: 20,147 kbps Video Codec..........: HEVC,Main 10@L5 Frame Rate...........: 23.976 fps Resolution...........: 3836 x 2072 Audio#01.............: English (US) 768 kbps CBR 6channels E-AC-3 (ATMOS) Subtitle#01..........: Spanish (Latin America) Latin America

    美国内战4k(2024年)
    ①网盘资源信息:
    剧情简介: 影片讲述美国在不久的将来,爆发了影响全国的内战。在资深战地摄影师李·史密斯(克斯汀·邓斯特 Kirsten Dunst 饰)的带领下,记者们组成了一支强大的专业团队,穿越战线并设法生存下来。他们驱车前往华盛顿特区,希望在总统向名为 "WF"的军事力量投降之前采访总统。

    6 天前/4K(3840x2160)

    异星战境4k

    Video ID : 1 Format : HEVC Format/Info : High Efficiency Video Coding Format profile : Main 10@L5@Main Codec ID : V_MPEGH/ISO/HEVC Duration : 2 h 0 min Bit rate : 10.8 Mb/s Width : 3 840 pixels Height : 2 160 pixels Display aspect ratio : 16:9 Frame rate mode : Constant Frame rate : 24.000 FPS Color space : YUV Chroma subsampling : 4:2:0 Bit depth : 10 bits Bits/(Pixel*Frame) : 0.054 Stream size : 9.02 GiB (86%) Title : BEN.THE.MEN Language : English Default : Yes Forced : Yes Color range : Limited Color primaries : BT.709 Transfer characteristics : BT.709 Matrix coefficients : BT.709 Audio #1 ID : 2 Format : E-AC-3 JOC Format/Info : Enhanced AC-3 with Joint Object Coding Commercial name : Dolby Digital Plus with Dolby Atmos Codec ID : A_EAC3 Duration : 2 h 0 min Bit rate mode : Constant Bit rate : 768 kb/s Channel(s) : 6 channels Channel layout : L R C LFE Ls Rs Sampling rate : 48.0 kHz Frame rate : 31.250 FPS (1536 SPF) Compression mode : Lossy Stream size : 660 MiB (6%) Title : BTM DDP5.1 Atmos Language : English Service kind : Complete Main Default : Yes Forced : Yes Complexity index : 16 Number of dynamic objects : 15 Bed channel count : 1 channel Bed channel configuration : LFE Dialog Normalization : -26 dB compr : -0.28 dB dialnorm_Average : -26 dB dialnorm_Minimum : -26 dB dialnorm_Maximum : -26 dB Audio #2 ID : 3 Format : E-AC-3 Format/Info : Enhanced AC-3 Commercial name : Dolby Digital Plus Codec ID : A_EAC3 Duration : 2 h 0 min Bit rate mode : Constant Bit rate : 960 kb/s Channel(s) : 6 channels Channel layout : L R C LFE Ls Rs Sampling rate : 48.0 kHz Frame rate : 31.250 FPS (1536 SPF) Compression mode : Lossy Stream size : 825 MiB (8%) Title : BTM DDP5.1 Language : English Service kind : Complete Main Default : No Forced : No Dialog Normalization : -31 dB dialnorm_Average : -31 dB dialnorm_Minimum : -31 dB dialnorm_Maximum : -31 dB

    异星战境4k(2024年)
    ①网盘资源信息:
    剧情简介:在未来世界,军事情报分析师Atlas Shepherd(詹妮弗·洛佩兹 Jennifer Lopez 饰),对AI有着深切的不信任感。她加入了一个任务,试图捕捉一个叛逃的机器人,而这个机器人有着神秘的过去。不过,当计划失败时,她唯一拯救人类未来免受AI侵害的希望就是去相信它。
    6.9

    6 天前/4K(3840x2160)

    孤注一掷4k

    Video ID : 1 Format : AVC Format/Info : Advanced Video Codec Format profile : Main@L5.1 Format settings : CABAC / 4 Ref Frames Format settings, CABAC : Yes Format settings, Reference frames : 4 frames Codec ID : avc1 Codec ID/Info : Advanced Video Coding Duration : 2 h 9 min Bit rate mode : Variable Bit rate : 21.5 Mb/s Maximum bit rate : 120 Mb/s Width : 3 840 pixels Height : 2 160 pixels Display aspect ratio : 16:9 Frame rate mode : Variable Frame rate : 25.000 FPS Minimum frame rate : 17.158 FPS Maximum frame rate : 25.000 FPS Color space : YUV Chroma subsampling : 4:2:0 Bit depth : 8 bits Scan type : Progressive Bits/(Pixel*Frame) : 0.104 Stream size : 19.5 GiB (100%) Color range : Limited Color primaries : BT.709 Transfer characteristics : BT.709 Matrix coefficients : BT.709 Codec configuration box : avcC Audio ID : 2 Format : AAC LC Format/Info : Advanced Audio Codec Low Complexity Codec ID : mp4a-40-2 Duration : 2 h 9 min Bit rate mode : Constant Bit rate : 64.0 kb/s Channel(s) : 2 channels Channel layout : L R Sampling rate : 44.1 kHz Frame rate : 43.066 FPS (1024 SPF) Compression mode : Lossy Stream size : 59.5 MiB (0%) Default : Yes Alternate group : 1

    孤注一掷4k(2023年)
    6.9
    ①网盘资源信息:
    剧情简介:南亚某国,由于当地政府监管不力以及有意纵容,诈骗产业极其昌盛,炒股、挖币、网游、电商、博彩等,各种手段层出不穷,花样百出。某个科技产业园内,诈骗团伙头目陆经理(王传君 饰)张狂傲慢,用诡计和暴力统治着这个血泪王国。程序员潘生(张艺兴 饰)离开之前的公司,根据高薪招聘启示 走入了陆经理设下的圈套,成为一名利用网络诈骗的狗推。因为羡慕闺蜜的生活,模特梁安娜(金晨 饰)也飞到异国他乡寻找机会,结果护照被没收,成为陆经理手下利用美色诈骗的工具。进入人间炼狱,仿佛再也见不到活着出去的希望……   电影取材自上万起真实诈骗案例。


2015-2023 www.4ksj.com  4K世界 |网站地图
京ICP证160991号 京公网安备11010802015683号 Copyright ©2023 All Rights Reserved.
    *本站提供的所有电影资源均来自互联网,仅限交流使用,请在下载后的2小时内删除,所有版权皆属原公司所有,如果认为本站侵犯了您的版权,请告知,我们会立即删除。