注册/登陆
游客您好
第三方账号登陆
白头神探 2 1/2:恐怖的气味.1991.2160p.4k电影下载
[复制链接]
2024-02-10 发布
  • 4K大师玩家
  • 20
  • 2789
静待花开 发表于 2024-2-10 23:02:00 |阅读模式 打印 上一主题 下一主题

白头神探 2 1/2:恐怖的气味4k
90年代(豆瓣:7.9)
  • 电影声道:5.1声道 
  • 电影语言:中文简体   中文繁体   英文字幕   
  • 画质标准 HDR 
  • 资源版本 WEB-DL 4K   
  • 帧数/FPS:23.976 Fps
    发布排行: 第部4K原盘
    导  演:大卫·扎克
    制片国家:美国 
    电影分类:动作 犯罪 喜剧 
    分 辨 率:4K(3840x2160)
简介 白宫晚宴上,总统布什招待各国首脑,因杀死一千名毒贩而受到嘉奖的白头神探弗兰克(莱斯利•尼尔森 Leslie Nielsen 饰)以及能源界的诸位领袖人物也一同出席,席间总统宣布由研究新能源的迈汉姆博士为政府的能源政策制定计划,这令靠石油、核能发家的能源界领袖们如临大敌。当夜迈汉姆博士的研究所就遭遇了炸弹袭击,弗兰克等人迅速赶到研究所,却不期然与已经分手的珍(普瑞希拉•普雷斯利 Priscilla Presley 饰)再相见,原来珍两年来一直在迈汉姆的研究所供职,并且有了新的男友——来自能源界的昆屯,在追查炸弹杀手的过程中,弗兰克发现其幕后老板居然是昆屯,此时的昆屯正在计划绑架迈汉姆博士后,用酷似博士的替身向总统进言发展核能,弗兰克再次出手,凭借自己搞砸一切的天赋挽救国家的未来……
  • 网盘①


    提取码①
    无链接, 或无权限
    网盘②


    访问码②
    中文字幕


    BT种子 / 磁力链下载
  • 电影信息INFO
    Video
    ID : 1
    Format : HEVC
    Format/Info : High Efficiency Video Coding
    Format profile : Main 10@L5@High
    HDR format : Dolby Vision, Version 1.0, dvhe.08.06, BL+RPU, HDR10 compatible / SMPTE ST 2094 App 4, Version 1, HDR10+ Profile B compatible
    Codec ID : V_MPEGH/ISO/HEVC
    Duration : 1 h 25 min
    Bit rate : 24.9 Mb/s
    Width : 3 840 pixels
    Height : 2 076 pixels
    Display aspect ratio : 1.85:1
    Frame rate mode : Constant
    Frame rate : 23.976 (24000/1001) FPS
    Color space : YUV
    Chroma subsampling : 4:2:0 (Type 2)
    Bit depth : 10 bits
    Bits/(Pixel*Frame) : 0.130
    Stream size : 14.8 GiB (86%)
    Title : The Naked Gun 2½: The Smell of Fear (1991)
    Language : English
    Default : Yes
    Forced : No
    Color range : Limited
    Color primaries : BT.2020
    Transfer characteristics : PQ
    Matrix coefficients : BT.2020 non-constant
    Mastering display color primaries : Display P3
    Mastering display luminance : min: 0.0050 cd/m2, max: 4000 cd/m2
    Maximum Content Light Level : 1010 cd/m2
    Maximum Frame-Average Light Level : 812 cd/m2

    Audio
    ID : 2
    Format : DTS XLL
    Format/Info : Digital Theater Systems
    Commercial name : DTS-HD Master Audio
    Codec ID : A_DTS
    Duration : 1 h 25 min
    Bit rate mode : Variable
    Bit rate : 4 106 kb/s
    Channel(s) : 6 channels
    Channel layout : C L R Ls Rs LFE
    Sampling rate : 48.0 kHz
    Frame rate : 93.750 FPS (512 SPF)
    Bit depth : 24 bits
    Compression mode : Lossless
    Stream size : 2.44 GiB (14%)
    Language : English
    Default : Yes
    Forced : No

    Text #1
    ID : 3
    Format : UTF-8
    Codec ID : S_TEXT/UTF8
    Codec ID/Info : UTF-8 Plain Text
    Duration : 1 h 23 min
    Bit rate : 65 b/s
    Count of elements : 1058
    Stream size : 40.3 KiB (0%)
    Language : English
    Default : Yes
    Forced : No

    Text #2
    ID : 4
    Format : UTF-8
    Codec ID : S_TEXT/UTF8
    Codec ID/Info : UTF-8 Plain Text
    Duration : 1 h 23 min
    Bit rate : 78 b/s
    Count of elements : 1604
    Stream size : 48.2 KiB (0%)
    Title : SDH
    Language : English
    Default : No
    Forced : No

    Text #3
    ID : 5
    Format : UTF-8
    Codec ID : S_TEXT/UTF8
    Codec ID/Info : UTF-8 Plain Text
    Duration : 1 h 23 min
    Bit rate : 70 b/s
    Count of elements : 845
    Stream size : 43.1 KiB (0%)
    Language : Arabic
    Default : No
    Forced : No

    Text #4
    ID : 6
    Format : UTF-8
    Codec ID : S_TEXT/UTF8
    Codec ID/Info : UTF-8 Plain Text
    Duration : 1 h 23 min
    Bit rate : 41 b/s
    Count of elements : 782
    Stream size : 25.6 KiB (0%)
    Language : Chinese
    Default : No
    Forced : No

    Text #5
    ID : 7
    Format : UTF-8
    Codec ID : S_TEXT/UTF8
    Codec ID/Info : UTF-8 Plain Text
    Duration : 1 h 23 min
    Bit rate : 42 b/s
    Count of elements : 781
    Stream size : 25.7 KiB (0%)
    Language : Chinese
    Default : No
    Forced : No

白头神探再显神威 / 白头神探2 / 站在子弹上的男人 / The Naked Gun 2 1/2: The Smell of Fear / 白头神探 2 1/2:恐怖的气味/白头神探2½:恐怖的气味4k.The.Naked.Gun.2.5.The.Smell.of.Fear.1991.2160p.WEB-DL.DTS-HD.MA.5.1.HDR.DoVi.HEVC-4k电影下载

[4ksj.net]白头神探 2 1/2:恐怖的气味4k.The.Naked.Gun.2.5.The.Smell.of.Fear.1991.2160p.WEB-DL.DTS-HD.MA.5.1.HDR.DoVi.HEVC[简繁中字]-4k世界

精彩评论3

michaelyuekan 发表于 2024-2-11 10:19:03
经典的喜剧
回复 支持 反对

使用道具 举报

toywinnie 发表于 4 天前
Thanks for sharing!
回复 支持 反对

使用道具 举报

您需要登录后才可以回帖 登录 | 立即注册

本版积分规则

推荐影视全站推荐影视下载
  • 6.1

    前天 19:08/4K(3840x2160)

    哈丽特4k

    Disc Title: HARRIET Disc Label: Harriet.2019.2160p.UHD.Blu-ray.HEVC.TrueHD.Atmos.7.1 Disc Size: 57,624,940,050 bytes Protection: AACS2 Playlist: 00000.MPLS Size: 52,566,663,168 bytes Length: 2:05:07.082 Total Bitrate: 56.02 Mbps Video: MPEG-H HEVC Video / 46999 kbps / 2160p / 23.976 fps / 16:9 / Main 10 @ Level 5.1 @ High / 10 bits / HDR10 / BT.2020 Audio: English / Dolby TrueHD/Atmos Audio / 7.1 / 48 kHz / 3331 kbps / 16-bit (AC3 Embedded: 5.1 / 48 kHz / 448 kbps / DN -27dB) Audio: French / Dolby Digital Audio / 5.1 / 48 kHz / 640 kbps / DN -27dB Audio: Spanish / Dolby Digital Plus Audio / 7.1 / 48 kHz / 768 kbps / DN -27dB (AC3 Embedded: 5.1 / 48 kHz / 448 kbps / DN -27dB) Audio: English / Dolby Digital Audio / 2.0 / 48 kHz / 192 kbps / DN -27dB Subtitle: English / 34.163 kbps Subtitle: French / 30.708 kbps Subtitle: Spanish / 28.135 kbps Subtitle: French / 0.850 kbps Subtitle: Spanish / 1.099 kbps

    哈丽特4k(2019年)
    6.1
    ①网盘资源信息:
    剧情简介:乔·阿尔文、小莱斯利·奥多姆将加盟传记影片[哈丽特],先前宣布加盟的卡司包括辛西娅·埃里沃、克拉克·彼得斯等。塞斯·曼恩(《国土安全》)执导。哈丽特·塔布曼生于1822年,原本是生活在马里兰州的黑奴,1849年她逃到北方,不久后加入到帮助奴隶逃亡的美国“地下铁路”中,成为最活跃的领袖之一,多次回到家乡带领其他奴隶逃往北方。南北战争爆发后,塔布曼积极参战,成为北军中为数不多的女性,战后她投身了争取妇女权益的运动。哈丽特也是首位登上美元的女性。影片将于下月在美国弗吉尼亚州开拍。
    7.0

    3 天前/4K(3840x2160)

    饥饿游戏:鸣鸟与蛇之歌4K

    Video #1 ID: 4113 (0x1011) Menu ID: 1 (0x1) Format: HEVC Format/Info: High Efficiency Video Coding Format profile: Main 10@L5.1@High HDR format: SMPTE ST 2086, HDR10 compatible Codec ID: 36 Duration: 2h 37m Width: 3840 pixels Height: 2160 pixels Display aspect ratio: 16:9 Frame rate: 23.976 (24000/1001) FPS Color space: YUV Chroma subsampling: 4:2:0 (Type 2) Bit depth: 10 bits Color range: Limited Color primaries: BT.2020 Transfer characteristics: PQ Matrix coefficients: BT.2020 non-constant Mastering display color primaries: Display P3 Mastering display luminance: min: 0.0001 cd/m2, max: 1000 cd/m2 Maximum Content Light Level: 999 cd/m2 Maximum Frame-Average Light Level: 122 cd/m2 Video #2 (Dolby Vision) ID: 4117 (0x1015) Menu ID: 1 (0x1) Format: HEVC Format/Info: High Efficiency Video Coding Format profile: Main 10@L5.1@High HDR format: SMPTE ST 2086, HDR10 compatible Codec ID: 36 Duration: 2h 37m Width: 1920 pixels Height: 1080 pixels Display aspect ratio: 16:9 Frame rate: 23.976 (24000/1001) FPS Color space: YUV Chroma subsampling: 4:2:0 (Type 2) Bit depth: 10 bits Color range: Limited Color primaries: BT.2020 Transfer characteristics: PQ Matrix coefficients: BT.2020 non-constant Mastering display color primaries: Display P3 Mastering display luminance: min: 0.0001 cd/m2, max: 1000 cd/m2 Audio #1 ID: 4352 (0x1100) Menu ID: 1 (0x1) Format: MLP FBA AC-3 16-ch Format/Info: Meridian Lossless Packing FBA with 16-channel presentation Commercial name: Dolby TrueHD with Dolby Atmos Muxing mode: Stream extension Codec ID: 131 Duration: 2h 37m Bit rate mode: Variable Bit rate: 640 kb/s Maximum bit rate: 7395 kb/s Channel(s): 8 channels Channel layout: L R C LFE Ls Rs Lb Rb Sampling rate: 48.0 kHz Frame rate: 31.250 FPS (1536 SPF) Compression mode: Lossless Stream size: 719 MiB (1%) Service kind: Complete Main Number of dynamic objects: 11 Bed channel count: 1 channel Bed channel configuration: LFE

    ①网盘资源信息:
    剧情简介:8岁的科里奥兰纳斯·斯诺(汤姆·布莱斯 饰)被选为第十届饥饿游戏的导师,与来自第十二区的贫困女孩露西·格蕾·贝尔德(瑞秋·齐格勒 饰)成为了“生死相依”的命运共同体。竞技场上,这是一场关乎自由、食物,甚至是尊重与权利的生死角逐;竞技场外,不忍与善意使斯诺决定不顾一切帮助露西在这场游戏中赢得胜利......当活下去的欲望与所遵守的规则背道而驰,命运的齿轮紧抓入自己手中时,他又该如何抉择?   影片改编自苏珊·柯林斯的同名小说。
    8.6

    7 天前/4K(3840x2160)

    王立宇宙军:欧尼亚米斯之翼4k

    DISC INFO: Disc Title: Royal.Space.Force.Wings.of.Honneamise.1987.2160p.UHD.Blu-ray.HEVC.TrueHD5.1-4ksj Disc Size: 97,507,860,070 bytes Protection: AACS2 Extras: Ultra HD BDInfo: 0.7.6.1 (compatible layout created by DVDFab 12.1.1.5) PLAYLIST REPORT: Name: 00001.MPLS Length: 1:59:50.183 (h:m:s.ms) Size: 96,049,711,104 bytes Total Bitrate: 106.87 Mbps VIDEO: Codec Bitrate Description ----- ------- ----------- MPEG-H HEVC Video 94676 kbps 2160p / 23.976 fps / 16:9 / Main 10 @ Level 5.1 @ High / 4:2:0 / 10 bits / 1000nits / HDR10 / BT.2020 AUDIO: Codec Language Bitrate Description ----- -------- ------- ----------- LPCM Audio Japanese 2304 kbps 2.0 / 48 kHz / 2304 kbps / 24-bit Dolby TrueHD Audio Japanese 2376 kbps 5.1 / 48 kHz / 1736 kbps / 16-bit (AC3 Core: 5.1 / 48 kHz / 640 kbps) LPCM Audio English 1536 kbps 2.0 / 48 kHz / 1536 kbps / 16-bit SUBTITLES: Codec Language Bitrate Description ----- -------- ------- ----------- Presentation Graphics English 28.952 kbps Presentation Graphics Japanese 19.983 kbps Presentation Graphics Chinese 30.536 kbps Presentation Graphics Chinese 31.649 kbps

    ①网盘资源信息:
    剧情简介:在奥内米斯王国里,有一支本应担任宇宙探险飞行的军队——王立宇宙军。但由于种种因素,他们始终只是一支无所作为的军队,甚至被其他军队视为废物。原本安于现状,只是在军队中混日子的年轻士官希洛兹(森本玲夫 配音),与美丽的少女莉库妮(弥生みつき 配音)邂逅,被她的单纯与虔诚所吸引,逐渐开始改变自己的人生态度——成为第一个探索宇宙的人,让“王立宇宙军”成为名副其实的宇宙探索者。   但现实是残酷的,奥内米斯王国内部的腐败使他们的信念一次次受挫,似乎人们都更关注于地面上丑陋的斗争,虽然王立宇宙军最后得到了飞行的机会,但那确是帝国内部的阴谋,企图牺牲希洛兹搭乘的火箭,以作为和邻国开战的借口。即便这样,希洛兹还是坐上了火箭,他能否看到太空中的日出呢……
    6.2

    3 天前/4K(3840x2160)

    金手指4k

    General............: The.Goldfinger.2023.2160p.HQ.WEB-DL.H265.60fps.DDP5.1.2Audio-4ksj Duration...........: 02:05:47.031 (HH:MM:SS:FF) RELEASE.SIZE.......: 23.6 GiB VIDEO.CODEC........: HEVC Main 10@L5.1@Main FRAMERATE..........: 60.000 fps VIDEO.BITRATE......: 24.9 Mb/s RESOLUTION.........: 3840 x 1608 ASPECT.RATIO.......: 2.40:1 Audio..............: E-AC-3 6 channels 448 kb/s Chinese Cantonese [DDP5.1] Audio..............: E-AC-3 6 channels 448 kb/s Chinese Mandarin [DDP5.1] Audio..............: E-AC-3 2 channels 256 kb/s Chinese Cantonese [DDP2.0] Audio..............: E-AC-3 2 channels 256 kb/s Chinese Mandarin [DDP2.0] Audio..............: AAC 2 channels 256 kb/s Chinese Cantonese [AAC2.0] Audio..............: AAC 2 channels 256 kb/s Chinese Mandarin [AAC2.0]

    金手指4k(2023年)
    6.2
    ①网盘资源信息:
    剧情简介:用100元的投入换来百亿奢靡人生,看穷小子不择手段颠覆规则将财富和权势玩弄于股掌之中!上市公司嘉文集团在短短几年间从默默无名到风生水起,再到没落清盘,市值蒸发超过一百亿。幕后老板程一言(梁朝伟 饰)也从万众瞩目的股民偶像变成人人喊打的过街老鼠。高级调查主任刘启源(刘德华 饰)长达十五年锲而不舍地搜证和跨境调查,消耗超过两亿诉讼费,竟发现局中有局案中有案,牵涉数条人命并波及香港整个上流社会,究竟谁在幕后?谁能逃脱?谁会出局?
    7.9

    5 天前/4K(3840x2160)

    西雅图未眠夜4k

    Video: MPEG-H HEVC Video / 77338 kbps / 2160p / 23.976 fps / 16:9 / Main 10 @ Level 5.1 @ High / 4:2:0 / 10 bits / 2000nits / HDR10 / BT.2020 Video: * MPEG-H HEVC Video / 2100 kbps / 1080p / 23.976 fps / 16:9 / Main 10 @ Level 5.1 @ High / 4:2:0 / 10 bits / 2000nits / Dolby Vision FEL / BT.2020 Audio: English / Dolby TrueHD/Atmos Audio / 7.1+11 objects / 48 kHz / 3948 kbps / 24-bit (AC3 Core: 5.1 / 48 kHz / 640 kbps) Audio: English / DTS-HD Master Audio / 5.1 / 48 kHz / 2148 kbps / 16-bit (DTS Core: 5.1 / 48 kHz / 1509 kbps / 16-bit) Audio: English / DTS-HD Master Audio / 2.0 / 48 kHz / 1555 kbps / 16-bit (DTS Core: 2.0 / 48 kHz / 1509 kbps / 16-bit) Audio: French / DTS-HD Master Audio / 2.0 / 48 kHz / 1555 kbps / 16-bit (DTS Core: 2.0 / 48 kHz / 1509 kbps / 16-bit) Audio: French / DTS-HD Master Audio / 2.0 / 48 kHz / 1556 kbps / 16-bit (DTS Core: 2.0 / 48 kHz / 1509 kbps / 16-bit) Audio: German / DTS-HD Master Audio / 2.0 / 48 kHz / 1556 kbps / 16-bit (DTS Core: 2.0 / 48 kHz / 1509 kbps / 16-bit) Audio: Italian / DTS-HD Master Audio / 2.0 / 48 kHz / 1555 kbps / 16-bit (DTS Core: 2.0 / 48 kHz / 1509 kbps / 16-bit) Audio: Korean / DTS-HD Master Audio / 2.0 / 48 kHz / 1561 kbps / 16-bit (DTS Core: 2.0 / 48 kHz / 1509 kbps / 16-bit) Audio: Spanish / DTS-HD Master Audio / 2.0 / 48 kHz / 1557 kbps / 16-bit (DTS Core: 2.0 / 48 kHz / 1509 kbps / 16-bit) Audio: Spanish / Dolby Digital Audio / 2.0 / 48 kHz / 192 kbps / Dolby Surround Audio: Thai / DTS-HD Master Audio / 2.0 / 48 kHz / 1558 kbps / 16-bit (DTS Core: 2.0 / 48 kHz / 1509 kbps / 16-bit) Audio: Turkish / DTS-HD Master Audio / 2.0 / 48 kHz / 1559 kbps / 16-bit (DTS Core: 2.0 / 48 kHz / 1509 kbps / 16-bit) Subtitle: English / 44.139 kbps Subtitle: English / 33.446 kbps Subtitle: English / 44.151 kbps Subtitle: English / 33.461 kbps Subtitle: Arabic / 17.208 kbps Subtitle: Chinese / 24.02 kbps Subtitle: Chinese / 29.461 kbps Subtitle: Danish / 25.709 kbps Subtitle: Dutch / 26.198 kbps Subtitle: Finnish / 27.629 kbps Subtitle: French / 28.433 kbps Subtitle: German / 28.544 kbps Subtitle: Italian / 26.934 kbps Subtitle: Korean / 21.502 kbps Subtitle: Norwegian / 25.264 kbps Subtitle: Portuguese / 26.138 kbps Subtitle: Spanish / 25.553 kbps Subtitle: Spanish / 31.147 kbps Subtitle: Swedish / 22.422 kbps Subtitle: Thai / 31.84 kbps Subtitle: Turkish / 29.039 kbps Subtitle: French / 0.638 kbps

    西雅图未眠夜4k(90年代)
    7.9
    ①网盘资源信息:
    剧情简介:自从妻子去世后,萨姆(汤姆·汉克斯 Tom Hanks饰)就相信自己此生的爱已经走到了尽头,不会再有新的恋情走进心中,他在西雅图和儿子乔纳一起平静的生活。而乔纳,却一直希望爸爸能够开始新的婚姻,重获生活的阳光。   抱着这样的想法,乔纳在圣诞夜打电话到电台的情感热线。就这样,萨姆的经历在此夜传遍了各个角落,很多人在倾听他的故事,其中包括安妮(梅格·瑞安 Meg Ryan饰)——一个住在东部的女记者。她善良,温柔,有一个知心的好友,和一个即将结婚的男友。然而,幸福的生活就被这个电话彻底打破了。她的内心有一种冲动,让她一步步地接近这个远在西部的男人。   然而,一次次辗转的错过让萨姆和安妮迟迟不能会面。屡次在缘份的天空下失诸交臂的二人,一直为爱而奔波,等待一个遇见的机缘。
2015-2023 www.4ksj.com  4K世界 |网站地图
京ICP证160991号 京公网安备11010802015683号 Copyright ©2023 All Rights Reserved.
    *本站提供的所有电影资源均来自互联网,仅限交流使用,请在下载后的2小时内删除,所有版权皆属原公司所有,如果认为本站侵犯了您的版权,请告知,我们会立即删除。