4K世界

电影封面:
片  名: Confess.Fletch
导  演: 格雷格·莫托拉
电影分类: 犯罪   喜剧   
国  家: 美国 
年  代: 2022年
豆瓣评分: 0 分
分 辨 率: 4K(3840x2160)
资源特性:  
画质标准: HDR10 
音质编码: Dolby Digital Audio   
电影声道: 5.1声道    
帧数/FPS: 23.976 帧
电影语言: 原版字幕 
中文字幕: /thread-71879-1-1.html
剧情简介: After becoming the prime suspect in multiple murders, Fletch strives to prove his innocence while simultaneously searching for his fiancé\'s stolen art collection.
Confess.Fletch.2022.2160p.WEB-DL.x265.10bit.HDR.DD5.1-4k电影信息
  1. Video
  2. ID : 1
  3. Format : HEVC
  4. Format/Info : High Efficiency Video Coding
  5. Format profile : Main 10@L5@High
  6. HDR format : SMPTE ST 2086, HDR10 compatible
  7. Codec ID : V_MPEGH/ISO/HEVC
  8. Duration : 1 h 38 min
  9. Bit rate : 14.5 Mb/s
  10. Width : 3 840 pixels
  11. Height : 2 076 pixels
  12. Display aspect ratio : 1.85:1
  13. Frame rate mode : Constant
  14. Frame rate : 23.976 FPS
  15. Color space : YUV
  16. Chroma subsampling : 4:2:0 (Type 2)
  17. Bit depth : 10 bits
  18. Bits/(Pixel*Frame) : 0.076
  19. Stream size : 10.0 GiB (97%)
  20. Language : English
  21. Default : Yes
  22. Forced : No
  23. Color range : Limited
  24. Color primaries : BT.2020
  25. Transfer characteristics : PQ
  26. Matrix coefficients : BT.2020 non-constant
  27. Mastering display color primaries : Display P3
  28. Mastering display luminance : min: 0.0050 cd/m2, max: 1000 cd/m2
  29. Maximum Content Light Level : 650 cd/m2
  30. Maximum Frame-Average Light Level : 183 cd/m2

  31. Audio
  32. ID : 2
  33. Format : AC-3
  34. Format/Info : Audio Coding 3
  35. Commercial name : Dolby Digital
  36. Codec ID : A_AC3
  37. Duration : 1 h 38 min
  38. Bit rate mode : Constant
  39. Bit rate : 384 kb/s
  40. Channel(s) : 6 channels
  41. Channel layout : L R C LFE Ls Rs
  42. Sampling rate : 48.0 kHz
  43. Frame rate : 31.250 FPS (1536 SPF)
  44. Compression mode : Lossy
  45. Stream size : 271 MiB (3%)
  46. Language : English
  47. Service kind : Complete Main
  48. Default : Yes
  49. Forced : No

  50. Text #1
  51. ID : 3
  52. Format : UTF-8
  53. Codec ID : S_TEXT/UTF8
  54. Codec ID/Info : UTF-8 Plain Text
  55. Duration : 1 h 38 min
  56. Bit rate : 93 b/s
  57. Frame rate : 0.305 FPS
  58. Count of elements : 1798
  59. Stream size : 67.0 KiB (0%)
  60. Title : SDH
  61. Language : English
  62. Default : No
  63. Forced : No

  64. Text #2
  65. ID : 4
  66. Format : UTF-8
  67. Codec ID : S_TEXT/UTF8
  68. Codec ID/Info : UTF-8 Plain Text
  69. Duration : 1 h 38 min
  70. Bit rate : 85 b/s
  71. Frame rate : 0.283 FPS
  72. Count of elements : 1665
  73. Stream size : 61.2 KiB (0%)
  74. Language : English
  75. Default : No
  76. Forced : No

  77. Menu
  78. 00:00:00.000 : en:Chapter 01
  79. 00:08:19.124 : en:Chapter 02
  80. 00:15:55.747 : en:Chapter 03
  81. 00:21:51.853 : en:Chapter 04
  82. 00:30:27.494 : en:Chapter 05
  83. 00:38:31.478 : en:Chapter 06
  84. 00:47:39.901 : en:Chapter 07
  85. 00:55:15.857 : en:Chapter 08
  86. 01:05:03.028 : en:Chapter 09
  87. 01:10:33.066 : en:Chapter 10
  88. 01:16:05.648 : en:Chapter 11
  89. 01:23:22.002 : en:Chapter 12
  90. 01:30:46.446 : en:Chapter 13
  91. 01:35:05.914 : en:Chapter 14
复制代码

Confess.Fletch.2022.2160p.WEB-DL.x265.10bit.HDR.DD5.1-4k电影下载

Confess.Fletch.2022.2160p.WEB-DL.x265.10bit.HDR.DD5.1【HDR】【10.28 GB】
[4k世界]Confess.Fletch.2022.2160p.WEB-DL.x265.10bit.HDR.DD5.1-CM.torrent (13.47 KB)
回复

使用道具 举报

全部回复5

seattle 22-9-17 22:36 显示全部楼层

seattle 2

22-9-17 22:36

谢谢分享资源!
回复 支持 反对

使用道具 举报

nusub 22-9-19 01:51 显示全部楼层

nusub 3

22-9-19 01:51


谢谢分享资源!
回复 支持 反对

使用道具 举报

勇往直前168 4

22-9-19 08:27

谢谢分享
回复 支持 反对

使用道具 举报

xv6950 22-9-23 09:14 显示全部楼层

xv6950 5

22-9-23 09:14


谢谢分享!!
回复 支持 反对

使用道具 举报

执守丶 6

22-9-25 10:34

感谢分享
回复 支持 反对

使用道具 举报

   发表回复

您需要登录后才可以回帖 登录 | 立即注册

返回列表 本版积分规则

  • 购买会员

  • 帮助

  • 回顶部