4K世界

电影封面:
片  名: 狂风飒飒4k
导  演: Fabian Medea
电影分类: 犯罪   剧情   
国  家: 其他 
年  代: 2022年
豆瓣评分: 6.2 分
分 辨 率: 4K(3840x2160)
资源特性:  
画质标准: SDR 
音质编码: Dolby Digital Plus Audio   
电影声道: 5.1声道    
帧数/FPS: 25.000 帧
电影语言: 原版字幕 
中文字幕: -
剧情简介: 警方在草丛中发现一具白人女孩的尸体,随后,种族矛盾和腐败问题开始在这个小镇愈演愈烈
狂风飒飒4k.Wild.Is.the.Wind.2022.2160p.NF.WEB-DL.x265.10bit.SDR.DDP5.1-电影信息
  1. Video
  2. ID : 1
  3. Format : HEVC
  4. Format/Info : High Efficiency Video Coding
  5. Format profile : Main 10@L5@Main
  6. Codec ID : V_MPEGH/ISO/HEVC
  7. Duration : 2 h 8 min
  8. Bit rate : 11.7 Mb/s
  9. Width : 3 840 pixels
  10. Height : 2 160 pixels
  11. Display aspect ratio : 16:9
  12. Frame rate mode : Constant
  13. Frame rate : 25.000 FPS
  14. Color space : YUV
  15. Chroma subsampling : 4:2:0
  16. Bit depth : 10 bits
  17. Bits/(Pixel*Frame) : 0.056
  18. Stream size : 10.5 GiB (95%)
  19. Default : Yes
  20. Forced : No
  21. Color range : Limited
  22. Color primaries : BT.709
  23. Transfer characteristics : BT.709
  24. Matrix coefficients : BT.709

  25. Audio
  26. ID : 2
  27. Format : E-AC-3
  28. Format/Info : Enhanced AC-3
  29. Commercial name : Dolby Digital Plus
  30. Codec ID : A_EAC3
  31. Duration : 2 h 8 min
  32. Bit rate mode : Constant
  33. Bit rate : 640 kb/s
  34. Channel(s) : 6 channels
  35. Channel layout : L R C LFE Ls Rs
  36. Sampling rate : 48.0 kHz
  37. Frame rate : 31.250 FPS (1536 SPF)
  38. Compression mode : Lossy
  39. Stream size : 586 MiB (5%)
  40. Title : English
  41. Language : English
  42. Service kind : Complete Main
  43. Default : No
  44. Forced : No

  45. Text #1
  46. ID : 3
  47. Format : UTF-8
  48. Codec ID : S_TEXT/UTF8
  49. Codec ID/Info : UTF-8 Plain Text
  50. Duration : 2 h 7 min
  51. Bit rate : 60 b/s
  52. Frame rate : 0.153 FPS
  53. Count of elements : 1164
  54. Stream size : 56.3 KiB (0%)
  55. Title : Arabic
  56. Language : Arabic
  57. Default : No
  58. Forced : No

  59. Text #2
  60. ID : 4
  61. Format : UTF-8
  62. Codec ID : S_TEXT/UTF8
  63. Codec ID/Info : UTF-8 Plain Text
  64. Duration : 2 h 7 min
  65. Bit rate : 36 b/s
  66. Frame rate : 0.145 FPS
  67. Count of elements : 1106
  68. Stream size : 34.0 KiB (0%)
  69. Title : Chinese Simplified
  70. Language : Chinese
  71. Default : No
  72. Forced : No

  73. Text #3
  74. ID : 5
  75. Format : UTF-8
  76. Codec ID : S_TEXT/UTF8
  77. Codec ID/Info : UTF-8 Plain Text
  78. Duration : 2 h 7 min
  79. Bit rate : 32 b/s
  80. Frame rate : 0.144 FPS
  81. Count of elements : 1095
  82. Stream size : 30.4 KiB (0%)
  83. Title : Chinese Traditional
  84. Language : Chinese
  85. Default : No
  86. Forced : No
复制代码

狂风飒飒4k.Wild.Is.the.Wind.2022.2160p.NF.WEB-DL.x265.10bit.SDR.DDP5.1-电影下载

狂风飒飒4k.Wild.Is.the.Wind.2022.2160p.NF.WEB-DL.x265.10bit.SDR.DDP5.1-简繁中字【11.05 GB】
[4K世界]狂风飒飒4k.Wild.Is.the.Wind.2022.2160p.NF.WEB-DL.x265.10bit.SDR.DDP5.1-HHWEB.torrent (14.46 KB, 售价: 2 个K币)
回复

使用道具 举报

全部点评6

stonezb 2023-1-22 16:37 显示全部楼层

stonezb 2

2023-1-22 16:37

谢谢分享
回复 支持 反对

使用道具 举报

guoke771226 3

2023-1-23 08:58

谢谢分享
回复 支持 反对

使用道具 举报

guosheng 2023-1-25 05:11 Hao4K手机版 显示全部楼层

guosheng 4

2023-1-25 05:11

谢谢分享
回复 支持 反对

使用道具 举报

静风JF 2023-1-30 13:33 显示全部楼层

静风JF 5

2023-1-30 13:33

这部不错
回复 支持 反对

使用道具 举报

xanli88 2023-1-30 17:13 显示全部楼层

xanli88 6

2023-1-30 17:13


谢谢分享。
回复 支持 反对

使用道具 举报

wangxia1973 7

2023-1-31 13:07

谢谢楼主发布分享。
回复 支持 反对

使用道具 举报

   发表点评

您需要登录后才可以回帖 登录 | 立即注册

返回列表 本版积分规则

  • 购买会员

  • 帮助

  • 回顶部