4K世界

电影封面:
片  名: Rainbow
导  演: Paco León
电影分类: 其他 
国  家: 其他 
年  代: 2022年
豆瓣评分: 4.5 分
分 辨 率: 4K(3840x2160)
资源特性:  
画质标准: SDR 
音质编码: Dolby-Atmos   Dolby Digital Plus Audio   
电影声道: 5.1声道    
帧数/FPS: 24.000 帧
电影语言: 原版字幕 
中文字幕: -
剧情简介: Modern day Dorothy (Wizard of Oz inspiration) faces the challenges of being a teenager nowdays.
Rainbow.2022.SPANISH.2160p.NF.WEB-DL.x265.10bit.SDR.DDP5.1.Atmos-电影信息
  1. Video
  2. ID : 1
  3. Format : HEVC
  4. Format/Info : High Efficiency Video Coding
  5. Format profile : Main 10@L5@Main
  6. Codec ID : V_MPEGH/ISO/HEVC
  7. Duration : 1 h 58 min
  8. Bit rate : 11.7 Mb/s
  9. Width : 3 840 pixels
  10. Height : 2 160 pixels
  11. Display aspect ratio : 16:9
  12. Frame rate mode : Constant
  13. Frame rate : 24.000 FPS
  14. Color space : YUV
  15. Chroma subsampling : 4:2:0
  16. Bit depth : 10 bits
  17. Bits/(Pixel*Frame) : 0.059
  18. Stream size : 9.72 GiB (94%)
  19. Default : Yes
  20. Forced : No
  21. Color range : Limited
  22. Color primaries : BT.709
  23. Transfer characteristics : BT.709
  24. Matrix coefficients : BT.709

  25. Audio
  26. ID : 2
  27. Format : E-AC-3 JOC
  28. Format/Info : Enhanced AC-3 with Joint Object Coding
  29. Commercial name : Dolby Digital Plus with Dolby Atmos
  30. Codec ID : A_EAC3
  31. Duration : 1 h 58 min
  32. Bit rate mode : Constant
  33. Bit rate : 768 kb/s
  34. Channel(s) : 6 channels
  35. Channel layout : L R C LFE Ls Rs
  36. Sampling rate : 48.0 kHz
  37. Frame rate : 31.250 FPS (1536 SPF)
  38. Compression mode : Lossy
  39. Stream size : 652 MiB (6%)
  40. Title : European Spanish
  41. Language : Spanish
  42. Service kind : Complete Main
  43. Default : No
  44. Forced : No
  45. Complexity index : 16
  46. Number of dynamic objects : 15
  47. Bed channel count : 1 channel
  48. Bed channel configuration : LFE

  49. Text #1
  50. ID : 3
  51. Format : UTF-8
  52. Codec ID : S_TEXT/UTF8
  53. Codec ID/Info : UTF-8 Plain Text
  54. Duration : 1 h 57 min
  55. Bit rate : 67 b/s
  56. Frame rate : 0.183 FPS
  57. Count of elements : 1287
  58. Stream size : 57.8 KiB (0%)
  59. Title : Arabic
  60. Language : Arabic
  61. Default : No
  62. Forced : No

  63. Text #2
  64. ID : 4
  65. Format : UTF-8
  66. Codec ID : S_TEXT/UTF8
  67. Codec ID/Info : UTF-8 Plain Text
  68. Duration : 1 h 57 min
  69. Bit rate : 39 b/s
  70. Frame rate : 0.183 FPS
  71. Count of elements : 1289
  72. Stream size : 33.7 KiB (0%)
  73. Title : Chinese Simplified
  74. Language : Chinese
  75. Default : No
  76. Forced : No

  77. Text #3
  78. ID : 5
  79. Format : UTF-8
  80. Codec ID : S_TEXT/UTF8
  81. Codec ID/Info : UTF-8 Plain Text
  82. Duration : 1 h 57 min
  83. Bit rate : 39 b/s
  84. Frame rate : 0.183 FPS
  85. Count of elements : 1289
  86. Stream size : 34.1 KiB (0%)
  87. Title : Chinese Traditional
  88. Language : Chinese
  89. Default : No
  90. Forced : No
复制代码

Rainbow.2022.SPANISH.2160p.NF.WEB-DL.x265.10bit.SDR.DDP5.1.Atmos-电影下载

Rainbow.2022.SPANISH.2160p.NF.WEB-DL.x265.10bit.SDR.DDP5.1.Atmos-简繁中字【10.36 GB】
[4k世界]Rainbow.2022.SPANISH.2160p.NF.WEB-DL.x265.10bit.SDR.DDP5.1.Atmos-HHWEB.torrent (13.61 KB)
回复

使用道具 举报

全部点评1

zs8461 2023-1-26 20:27 显示全部楼层

zs8461 2

2023-1-26 20:27

感谢楼主分享好资源,收藏了~
回复 支持 反对

使用道具 举报

   发表点评

您需要登录后才可以回帖 登录 | 立即注册

返回列表 本版积分规则

  • 购买会员

  • 帮助

  • 回顶部